Поиск

1982 Mose Allison - Lessons In Living (2006) {Rhino Elektra} [24-192]

1982 Mose Allison - Lessons In Living (2006) {Rhino Elektra} [24-192]
Дата записи диска:
21 июля 1982
Место записи:
Montreux Jazz Festival; Mountain Studio, Montreux, Switzerland
Издатель (лейбл):
Носитель:
WEB
Формат:
PCM
Тип рипа:
tracks
Контейнер:
FLAC (*.flac)
Количество каналов:
2.0
Разрядность/ЧД:
24/192
Битрейт аудио:
lossless
Время звучания:
00:37:38
Наличие сканов:
только обложка
Страна-производитель диска (релиза):
USA
Релизёр (источник):
latimer
Лог проверки качества
foobar2000 1.4.3 / Dynamic Range Meter 1.1.1
log date: 2021-05-10 22:17:13

--------------------------------------------------------------------------------
Analyzed: Lou Donaldson / Lessons in Living (Live at Montreux Jazz Festival)
--------------------------------------------------------------------------------

DR         Peak         RMS     Duration Track
--------------------------------------------------------------------------------
DR14      -0.34 dB   -16.42 dB      2:49 01-Lost Mind  (Live at Montreux Jazz Festival, July 1982)
DR12       0.00 dB   -15.40 dB      2:23 02-Wild Man on the Loose  (Live at Montreux Jazz Festival, July 1982)
DR13       0.00 dB   -15.66 dB      3:04 03-Your Mind Is on Vacation  (Live at Montreux Jazz Festival, July 1982)
DR14      -0.39 dB   -18.73 dB      5:05 04-You Are My Sunshine  (Live at Montreux Jazz Festival, July 1982)
DR12      -0.42 dB   -15.06 dB      4:55 05-Seventh Son  (Live at Montreux Jazz Festival, July 1982)
DR15      -0.55 dB   -19.02 dB      3:29 06-Everybody Cryin' Mercy  (Live at Montreux Jazz Festival, July 1982)
DR13      -0.51 dB   -16.10 dB      3:32 07-Middle Class White Boy  (Live at Montreux Jazz Festival, July 1982)
DR11      -0.09 dB   -13.97 dB      5:30 08-I Don't Worry About a Thing  (Live at Montreux Jazz Festival, July 1982)
DR11       0.00 dB   -13.87 dB      6:56 09-Night Club  (Live at Montreux Jazz Festival, July 1982)
--------------------------------------------------------------------------------

Number of tracks:  9
Official DR value: DR13

Samplerate:        192000 Hz
Channels:          2
Bits per sample:   24
Bitrate:           5258 kbps
Codec:             FLAC
================================================================================
No seeders - write personal message to M0p94ok. Any questions - support@pro-jazz.com.
Нет сидеров - пишите в личку M0p94ok. Есть вопросы - support@pro-jazz.com
14:27
50
Нет комментариев. Ваш будет первым!