Поиск

2020 Dinah Shore - Simply ... Dinah! {Jube Legends} [24-48]

2020 Dinah Shore - Simply ... Dinah! {Jube Legends} [24-48]
Стили:
Носитель:
WEB
Формат:
PCM
Тип рипа:
tracks
Контейнер:
FLAC (*.flac)
Количество каналов:
2.0
Разрядность/ЧД:
24/48
Битрейт аудио:
lossless
Время звучания:
01:45:44
Наличие сканов:
только обложка
Страна-производитель диска (релиза):
USA
Релизёр (источник):
latimer
Лог проверки качества
foobar2000 1.4.3 / Dynamic Range Meter 1.1.1
log date: 2021-05-04 20:30:00

--------------------------------------------------------------------------------
Analyzed: Dinah Shore / Simply ... Dinah! (2020 Remaster)
--------------------------------------------------------------------------------

DR         Peak         RMS     Duration Track
--------------------------------------------------------------------------------
DR10      -0.06 dB   -13.57 dB      5:35 01-Dinah's Medley (Where or when - Easy to love - Get out and get under the moon - They can't take That away from me)
DR10      -0.06 dB   -13.37 dB      2:58 02-The Boys from Syracuse: Falling in Love with Love
DR10      -0.06 dB   -13.85 dB      2:34 03-Cabin in the Sky: Taking a Chance on Love
DR11      -0.06 dB   -13.37 dB      2:59 04-The one I love
DR9       -0.06 dB   -11.89 dB      2:50 05-You were never lovlier: I'm old fashioned
DR10      -0.06 dB   -13.02 dB      3:25 06-Sentimental Journey
DR12      -0.06 dB   -15.36 dB      2:48 07-I can't face the music without singing the Blues
DR13      -0.06 dB   -18.30 dB      3:20 08-If I had you
DR13      -0.06 dB   -18.13 dB      2:39 09-Born to dance: I've got you under my skin
DR13      -0.06 dB   -17.07 dB      2:22 10-Someday Sweetheart
DR13      -0.06 dB   -18.04 dB      2:55 11-Walk a little faster: April in Paris
DR12      -0.06 dB   -16.27 dB      2:11 12-Sunny: Sunny: Who?
DR14      -0.06 dB   -18.60 dB      2:40 13-Sleepy Time Gal
DR13      -0.06 dB   -16.91 dB      2:11 14-It's funny to everyone but me
DR14      -0.06 dB   -19.55 dB      3:11 15-Vogues of 1938: That old Feeling
DR13      -0.06 dB   -17.07 dB      3:30 16-Do nothing till you hear from me
DR13      -0.06 dB   -17.86 dB      3:41 17-My melancholy Baby
DR13      -0.06 dB   -16.53 dB      3:30 18-I can't believe you're in love with me
DR12      -0.06 dB   -17.81 dB      3:17 19-Then I'll be tired of you
DR13      -0.06 dB   -16.43 dB      3:50 20-I ain't got nothing but the Blues
DR13      -0.79 dB   -17.86 dB      3:34 21-Babes in Arms: My funny Valentine
DR11      -0.06 dB   -14.55 dB      2:21 22-Skylark
DR12      -0.06 dB   -16.47 dB      3:17 23-The man I love
DR12      -0.06 dB   -16.40 dB      3:38 24-The New Moon: Lover, come back to me
DR14      -0.06 dB   -19.09 dB      3:07 25-Right This Way: I'll be seeing you
DR13      -0.06 dB   -17.51 dB      2:40 26-Can-can: It's all right with me
DR13      -0.06 dB   -17.46 dB      3:23 27-It had to be you
DR12      -0.06 dB   -16.36 dB      2:55 28-Bye-bye Blues
DR9       -0.06 dB   -12.63 dB      2:37 29-Keep It a secret
DR9       -0.06 dB   -12.67 dB      2:16 30-Lili: Lili: Hi-lili. Hi-lo
DR9       -0.06 dB   -11.71 dB      2:25 31-Down in Nashville, Tennessee
DR7       -0.06 dB   -11.66 dB      3:10 32-Wedding Bells: Too late now
DR10      -0.06 dB   -12.93 dB      3:06 33-Goldwyn Follies 1938: Love Is here to stay
DR10      -0.06 dB   -13.26 dB      5:10 34-Yes, indeed!
--------------------------------------------------------------------------------

Number of tracks:  34
Official DR value: DR12

Samplerate:        48000 Hz
Channels:          2
Bits per sample:   24
Bitrate:           1487 kbps
Codec:             FLAC
================================================================================
No seeders - write personal message to M0p94ok. Any questions - support@pro-jazz.com.
Нет сидеров - пишите в личку M0p94ok. Есть вопросы - support@pro-jazz.com
20:07
50
Нет комментариев. Ваш будет первым!