Поиск

1954 Sal Salvador Quintet - Sal Salvador Quintet {Blue Note} [24-192]

1954 Sal Salvador Quintet - Sal Salvador Quintet {Blue Note} [24-192]
Стили:
Дата записи диска:
24 декабря 1953 - 9 октября 1954
Номер по каталогу:
BLP 5035
Носитель:
WEB
Формат:
PCM
Тип рипа:
tracks
Контейнер:
FLAC (*.flac)
Количество каналов:
2.0
Разрядность/ЧД:
24/192
Битрейт аудио:
lossless
Время звучания:
00:23:28
Наличие сканов:
только обложка
Страна-производитель диска (релиза):
USA
Релизёр (источник):
latimer
Лог проверки качества
foobar2000 1.4.3 / Dynamic Range Meter 1.1.1
log date: 2021-05-04 20:09:50

--------------------------------------------------------------------------------
Analyzed: Sal Salvador Quintet / Sal Salvador Quintet
--------------------------------------------------------------------------------

DR         Peak         RMS     Duration Track
--------------------------------------------------------------------------------
DR13      -0.74 dB   -15.24 dB      5:11 01-Gone With The Wind
DR11      -1.08 dB   -15.02 dB      3:21 02-Get Happy
DR10      -2.61 dB   -16.29 dB      3:24 03-My Old Flame
DR11      -0.74 dB   -13.50 dB      2:55 04-This Can't Be Love
DR12      -0.56 dB   -14.48 dB      5:15 05-Too Marvelous For Words
DR11      -0.39 dB   -14.13 dB      3:22 06-After You've Gone
--------------------------------------------------------------------------------

Number of tracks:  6
Official DR value: DR11

Samplerate:        192000 Hz
Channels:          2
Bits per sample:   24
Bitrate:           4484 kbps
Codec:             FLAC
================================================================================
No seeders - write personal message to M0p94ok. Any questions - support@pro-jazz.com.
Нет сидеров - пишите в личку M0p94ok. Есть вопросы - support@pro-jazz.com
18:58
44
Нет комментариев. Ваш будет первым!