Поиск

1956 Carmen McRae - By Special Request! (2019) {RevOla} [24-44.1]

1956 Carmen McRae - By Special Request! (2019) {RevOla} [24-44.1]
Стили:
Дата записи диска:
14 июня - 16 июня 1955
Дата переиздания диска:
2 июля 2019
Издатель (лейбл):
Носитель:
WEB
Формат:
PCM
Тип рипа:
tracks
Контейнер:
FLAC (*.flac)
Количество каналов:
2.0
Разрядность/ЧД:
24/44,1
Битрейт аудио:
lossless
Время звучания:
00:47:11
Наличие сканов:
только обложка
Страна-производитель диска (релиза):
USA
Релизёр (источник):
latimer
Доп. инфо:

Помимо записи для лейбла Bethlehem и нескольких разрозненных отрывков, этот LP (большая часть которого переиздана на компакт-диске) содержит самые ранние записи Кармен МакРэй. Хотя ее голос выше, чем был бы, и ее стиль не так узнаваем, она уже была первоклассной певицей на этом раннем этапе. К некоторым номерам Макрей присоединился квинтет Мэттьюза (с Мэтьюзом на аккордеоне и молодым Херби Манном на флейте), в то время как к другим присоединились пианист Дик Кац, гитарист Манделл Лоу, басист Венделл Маршалл и ее бывший муж Кенни Кларк ударные. Макрей играет на пианино в "Suppertime", а Билли Стрейхорн играет на своем собственном "Something to Live For". Среди других песен, которые МакРэй поднимает и раскачивает, это "Give Me the Simple Life," "Sometimes I'm Happy," "Yardbird Suite," и "This Will Make You Laugh".

Лог проверки качества
foobar2000 1.4.3 / Dynamic Range Meter 1.1.1
log date: 2021-05-03 23:49:20

--------------------------------------------------------------------------------
Analyzed: Carmen McRae / By Special Request!
--------------------------------------------------------------------------------

DR         Peak         RMS     Duration Track
--------------------------------------------------------------------------------
DR13      -2.63 dB   -18.31 dB      2:19 01-Give Me the Simple Life (Remastered)
DR13      -3.98 dB   -19.40 dB      2:34 02-Sometimes I'm Happy (Remastered)
DR11      -3.84 dB   -18.95 dB      2:40 03-Love Is Here to Stay (Remastered)
DR12      -5.59 dB   -20.89 dB      3:13 04-Something to Live For (Remastered)
DR13      -4.72 dB   -20.90 dB      3:18 05-I Can't Get Started (Remastered)
DR13      -4.61 dB   -19.54 dB      1:58 06-Yardbird Suite (Remastered)
DR12      -3.74 dB   -18.37 dB      2:40 07-Just One of Those Things (Remastered)
DR13      -4.38 dB   -20.88 dB      3:23 08-This Will Make You Laugh (Remastered)
DR13      -3.67 dB   -20.43 dB      3:10 09-My One and Only Love (Remastered)
DR13      -3.61 dB   -18.99 dB      2:38 10-I'll Remember April (Remastered)
DR12      -7.11 dB   -22.69 dB      3:00 11-Supper Time (Remastered)
DR13      -4.51 dB   -20.00 dB      2:36 12-You Took Advantage of Me (Remastered)
DR12      -2.55 dB   -17.11 dB      2:10 13-They All Laughed (Remastered)
DR12      -2.28 dB   -19.04 dB      3:06 14-Keep Me in Mind (Remastered)
DR14      -2.84 dB   -19.84 dB      2:18 15-Ooh (What Cha Doin' to Me) (Remastered)
DR13      -3.54 dB   -21.48 dB      3:02 16-If I'm Lucky (I'll Be the One) (Remastered)
DR12      -7.84 dB   -22.69 dB      3:15 17-Georgia Rose (Remastered)
--------------------------------------------------------------------------------

Number of tracks:  17
Official DR value: DR12

Samplerate:        44100 Hz
Channels:          2
Bits per sample:   24
Bitrate:           1058 kbps
Codec:             FLAC
================================================================================
No seeders - write personal message to M0p94ok. Any questions - support@pro-jazz.com.
Нет сидеров - пишите в личку M0p94ok. Есть вопросы - support@pro-jazz.com
21:17
57
Нет комментариев. Ваш будет первым!