Поиск

2019 Edgar Knecht - Personal Seasons {Ozella Music} [24-96]

2019 Edgar Knecht - Personal Seasons {Ozella Music} [24-96]
Место записи:
Fattoria Musica, Osnabrück, Germany
Дата издания диска:
1 ноября 2019
Издатель (лейбл):
Номер по каталогу:
OZ096
Носитель:
WEB
Формат:
PCM
Тип рипа:
tracks
Контейнер:
FLAC (*.flac)
Количество каналов:
2.0
Разрядность/ЧД:
24/96
Битрейт аудио:
lossless
Время звучания:
00:53:59
Наличие сканов:
только обложка
Страна-производитель диска (релиза):
Germany
Релизёр (источник):
M0p94ok
Доп. инфо:

https://www.qobuz.com/au-en/album/personal-seasons-edgar-knecht/mddnft533jm9b

Personal Seasons снова демонстрирует то, что пианист Эдгар Кнехт и его группа могут делать лучше всего: живые грувы, волшебное, мелодичное соло и уникальное сочетание джаза, классической музыки и немецких народных песен, типичное для Кнехта. В то же время он включает в себя два полных сезонных цикла, каждый из которых имеет уникальный характер. Чтобы реализовать свое видение, он расширил группу до квартета. Идеальным выбором оказался трубач Фредерик Кёстер. Кнехту, возможно, пришлось покинуть свою зону комфорта, но оно того стоило: личные сезоны - настоящий поворотный момент для одного из самых творческих джазовых музыкантов Европы.

Лог проверки качества
foobar2000 1.6.2 / Dynamic Range Meter 1.1.1
log date: 2021-08-08 20:04:40

--------------------------------------------------------------------------------
Analyzed: Edgar Knecht / Personal Seasons
--------------------------------------------------------------------------------

DR         Peak         RMS     Duration Track
--------------------------------------------------------------------------------
DR9       -0.71 dB   -12.65 dB      7:24 01-Schalmei
DR10      -0.72 dB   -14.51 dB      6:01 02-Schnitter Tod
DR9       -0.71 dB   -11.50 dB      8:02 03-Italian Summer
DR9       -0.71 dB   -13.19 dB      6:45 04-The Ship
DR8       -0.71 dB   -11.55 dB      8:28 05-Winterschall
DR11      -0.72 dB   -14.02 dB      6:49 06-Spring Fever
DR9       -0.71 dB   -11.65 dB      6:13 07-Sommerschall
DR11      -0.72 dB   -15.23 dB      4:17 08-Bunte Wälder
--------------------------------------------------------------------------------

Number of tracks:  8
Official DR value: DR10

Samplerate:        96000 Hz
Channels:          2
Bits per sample:   24
Bitrate:           2553 kbps
Codec:             FLAC
================================================================================
No seeders - write personal message to M0p94ok. Any questions - support@pro-jazz.com.
Нет сидеров - пишите в личку M0p94ok. Есть вопросы - support@pro-jazz.com
20:17
45
Нет комментариев. Ваш будет первым!