Поиск

2021 Snorre Kirk Quartet & Stephen Riley - Going Up {Stunt} [24-96]

2021 Snorre Kirk Quartet & Stephen Riley - Going Up {Stunt} [24-96]
Стили:
Дата издания диска:
19 марта 2021
Издатель (лейбл):
Номер по каталогу:
STU21032
Битрейт аудио:
lossless
Доп. инфо:

Формат записи/Источник записи: [TR24][OF]
Наличие водяных знаков: Нет
Год издания/переиздания диска: 2021
Продолжительность: 33:44
Наличие сканов в содержимом раздачи: Нет

Контейнер: FLAC (*.flac)
Тип рипа: tracks
Разрядность: 24/96
Формат: PCM
Количество каналов: 2.0

Источник (релизер): qobuz

Лог проверки качества
foobar2000 1.6.5 beta 2 / Dynamic Range Meter 1.1.1
log date: 2021-03-20 02:06:13

--------------------------------------------------------------------------------
Analyzed: Snorre Kirk & Stephen Riley / Going Up
--------------------------------------------------------------------------------

DR         Peak         RMS     Duration Track
--------------------------------------------------------------------------------
DR11       0.00 dB   -15.44 dB      4:37 01-Right on Time
DR13      -0.16 dB   -15.92 dB      3:12 02-Streamline
DR10      -0.14 dB   -12.70 dB      4:35 03-Going Up
DR10      -0.15 dB   -13.33 dB      5:29 04-Dive
DR9       -0.15 dB   -11.68 dB      3:02 05-Bright and Early
DR14      -0.16 dB   -16.39 dB      3:00 06-Highway Scene
DR11      -0.13 dB   -15.43 dB      1:19 07-Call to Prayer
DR14      -0.13 dB   -16.87 dB      4:40 08-Blues Arabesque
DR11      -0.15 dB   -12.95 dB      3:46 09-The Grind
--------------------------------------------------------------------------------

Number of tracks:  9
Official DR value: DR11

Samplerate:        96000 Hz
Channels:          2
Bits per sample:   24
Bitrate:           2984 kbps
Codec:             FLAC
================================================================================
No seeders - write personal message to M0p94ok. Any questions - support@pro-jazz.com.
Нет сидеров - пишите в личку M0p94ok. Есть вопросы - support@pro-jazz.com
19:16
45
Нет комментариев. Ваш будет первым!