Вы используете незарегистрированную версию компонента "Вкладки"!

Поиск

2016 Daniel Freedman - Imagine That {Anzic} [24-44.1]

2016 Daniel Freedman - Imagine That {Anzic} [24-44.1]
Дата записи диска:
6 июня 2013
Место записи:
Studio G, Brooklyn, New York City, USA
Дата издания диска:
15 апреля 2016
Номер по каталогу:
ANZ-0054
Носитель:
WEB
Формат:
PCM
Тип рипа:
tracks
Контейнер:
FLAC (*.flac)
Количество каналов:
2.0
Разрядность/ЧД:
24/44,1
Битрейт аудио:
lossless
Время звучания:
00:49:20
Наличие сканов:
только обложка
Страна-производитель диска (релиза):
USA
Релизёр (источник):
M0p94ok
Лог проверки качества
foobar2000 1.6.2 / Dynamic Range Meter 1.1.1
log date: 2021-08-06 21:57:15

--------------------------------------------------------------------------------
Analyzed: Daniel Freedman / Imagine That
--------------------------------------------------------------------------------

DR         Peak         RMS     Duration Track
--------------------------------------------------------------------------------
DR8        0.00 dB   -10.06 dB      5:28 01-Determined Soul
DR8        0.00 dB   -11.83 dB      6:03 02-Baby Aya
DR9        0.00 dB   -11.82 dB      4:47 03-Big in Yemen
DR7        0.00 dB   -12.23 dB      5:07 04-Codex
DR7        0.00 dB   -11.38 dB      7:08 05-Mindaho
DR10       0.00 dB   -13.44 dB      5:26 06-Love Takes Time
DR10       0.00 dB   -14.19 dB      6:32 07-Eastern Elegy
DR8        0.00 dB   -10.55 dB      8:50 08-The Sisters Dance
--------------------------------------------------------------------------------

Number of tracks:  8
Official DR value: DR8

Samplerate:        44100 Hz
Channels:          2
Bits per sample:   24
Bitrate:           1623 kbps
Codec:             FLAC
================================================================================
Any questions - support@pro-jazz.com. Есть вопросы - support@pro-jazz.com
22:01
73
Нет комментариев. Ваш будет первым!