Поиск

2020 Marc Ribot's Ceramic Dog - What I Did On My Long Vacation {Northern Spy} [24-96]

2020 Marc Ribot's Ceramic Dog - What I Did On My Long Vacation {Northern Spy} [24-96]
Дата издания диска:
2 октября 2020
Носитель:
WEB
Формат:
PCM
Тип рипа:
tracks
Контейнер:
FLAC (*.flac)
Количество каналов:
2.0
Разрядность/ЧД:
24/96
Битрейт аудио:
lossless
Время звучания:
00:31:08
Наличие сканов:
только обложка
Страна-производитель диска (релиза):
USA
Релизёр (источник):
jozas
Доп. инфо:

У Шахзада все облажались, поэтому мы не встретились до конца мая, хотя он жил прямо наверху из студии. Чес присматривал за своим ребенком (Зейном), пока Мия работала, а я гулял по своей квартире, разговаривал сам с собой и ел фасоль из жестяных банок (с сальсой и соевым соусом в особых случаях). Но в конце концов у нас появился план. Шахзад настраивал все микрофоны до нашего приезда, затем заходил в диспетчерскую и закрывал дверь. Мы с Чесом приезжали позже, он на своей машине, я на велосипеде, в разное время заходил в переднюю в масках, снимал обувь, мыл руки. Чес подходил к ударной установке в главной комнате, а я шел в изолятор и закрывал дверь. Если нам приходилось ходить в ванную, мы одевали маски.
Мы никогда не видели друг друга буквально, но, учитывая отличные микрофоны и систему мониторинга, мы слышали друг друга лучше, чем когда-либо. И поэтому мы забыли об отсутствии визуальных эффектов и намеренно, радостно слепо записывали по четыре часа в день в течение немногим более двух недель.
Это заставило нас вспомнить, что мы любили друг в друге, в нашей группе и в записи, которую мы делаем вместе и по отдельности.
Это сделало нас счастливее, чем все, что мы делали с момента закрытия, и опечалило силы, ведущие тех из нас, кто работает в этом, к нестабильности задолго до того, как кто-либо когда-либо слышал о COVID-19. (краткий миф / историю Кремниевой долины, рассказанную с точки зрения умственно отсталого наркомана амфетамина, см. в разделе «Хиппи привыкли быть хорошими»). Это заставило меня дать отпор IRL (musicworkersalliance.org).
Когда мы закончили, у нас было намного больше материала, чем можно было бы уместить на компакт-диске, и мы очень воодушевлены всем этим. Итак, альбом (с 9 из 14 мелодий) выйдет весной 2021 года, а остальные мы выпускаем сейчас как специальный релиз Bandcamp Friday EP, чтобы задержать нас.
Мы скучаем по вам и с нетерпением ждем безопасного и разумного возобновления живых выступлений - под новой политической администрацией, которая уважает человеческую жизнь, способна понимать науку и ценит искусство. А пока: swingleft.org
«Оплакивайте мертвых и сражайтесь, как в аду, за живых».

M Ribot & Ceramic Dog

https://marcribot.bandcamp.com/what-i-did-on-my-long-vacation

Лог проверки качества
foobar2000 1.6.2 / Dynamic Range Meter 1.1.1
log date: 2021-05-08 11:11:49

--------------------------------------------------------------------------------
Analyzed: Marc Ribot's Ceramic Dog / What I Did On My Long 'Vacation'
--------------------------------------------------------------------------------

DR         Peak         RMS     Duration Track
--------------------------------------------------------------------------------
DR7       -0.50 dB    -8.39 dB      4:17 01-We Crashed In Norway
DR5       -0.50 dB    -6.60 dB      6:58 02-Beer
DR8       -0.50 dB    -9.17 dB      4:35 03-Who Was That Masked Man?
DR5       -0.50 dB    -7.15 dB      2:03 04-Dog Death opus 27
DR7       -0.50 dB    -8.63 dB      5:16 05-Hippies Are Not Nice Anymore
DR7       -0.50 dB    -9.97 dB      7:58 06-The Dead Have Come To Stay With Me
--------------------------------------------------------------------------------

Number of tracks:  6
Official DR value: DR6

Samplerate:        96000 Hz
Channels:          2
Bits per sample:   24
Bitrate:           2606 kbps
Codec:             FLAC
================================================================================
No seeders - write personal message to M0p94ok. Any questions - support@pro-jazz.com.
Нет сидеров - пишите в личку M0p94ok. Есть вопросы - support@pro-jazz.com
18:45
50
Нет комментариев. Ваш будет первым!