Поиск

2017 Carlos Franzetti & Allison Brewster Franzetti - Luminosa {Sunnyside} [24-48]

2017 Carlos Franzetti & Allison Brewster Franzetti - Luminosa {Sunnyside} [24-48]
Дата издания диска:
26 мая 2017
Издатель (лейбл):
Номер по каталогу:
SSC 1483
Носитель:
WEB
Формат:
PCM
Тип рипа:
tracks
Контейнер:
FLAC (*.flac)
Количество каналов:
2.0
Разрядность/ЧД:
24/48
Битрейт аудио:
lossless
Время звучания:
00:54:17
Наличие сканов:
только обложка
Страна-производитель диска (релиза):
Czech Republic
Релизёр (источник):
M0p94ok

01. Luminosa 02:33
02. Tango Del Eco 04:21
03. Concierto Del Plata - I. Porteña 06:34
04. Concierto Del Plata - II. Milonga 04:47
05. Concierto Del Plata - IV. Criolla 05:40
06. Nada 03:55
07. Concierto En Blanco Y Negro For Piano And String Orchestra - I. Decidido 08:46
08. Concierto En Blanco Y Negro For Piano And String Orchestra - II. Quasi Pasacaglia: Grave - Solemne 05:05
09.Concierto En Blanco Y Negro For Piano And String Orchestra - III. Enérgico 05:23
10. Interludes From Dante Porteño - I. Dante Noir 02:43
11. Interludes From Dante Porteño - II. Vals De Beatriz 02:28
12. Interludes From Dante Porteño - III. The Ninth Circle 02:10

Состав:
  • Carlos Franzetti — conductor, arranger
  • Allison Brewster Franzetti — piano
  • City of Prague Philharmonic Orchestra
  • Concertmistress – Lucie Švehlová
  • Conductor, Producer – James Fitzpatrick
  • Engineer – Jan Holzner
  • Executive-Producer – Francois Zalacain
  • Mastered By, Mixed By – Gareth Williams
  • Musical Assistance – Stanja Vomackova
Лог проверки качества
foobar2000 1.3.16 / Dynamic Range Meter 1.1.1
log date: 2019-06-06 22:01:00

--------------------------------------------------------------------------------
Analyzed: Carlos Franzetti  & Allison Brewster Franzetti / Luminosa
--------------------------------------------------------------------------------

DR         Peak         RMS     Duration Track
--------------------------------------------------------------------------------
DR12      -1.61 dB   -18.22 dB      2:32 01-Luminosa
DR12      -0.55 dB   -15.41 dB      4:20 02-Tango del Eco
DR12      -0.54 dB   -16.01 dB      6:34 03-Concierto del Plata: Porteña
DR12      -0.55 dB   -17.94 dB      4:48 04-Concierto del Plata: Milonga
DR13      -0.58 dB   -17.89 dB      5:39 05-Concierto del Plata: Criolla
DR12      -3.43 dB   -19.28 dB      3:53 06-Nada
DR13      -0.54 dB   -18.40 dB      8:47 07-Concierto en Blanco y Negro for Piano and String Orchestra: Decidido
DR13      -3.00 dB   -22.34 dB      5:07 08-Concierto en Blanco y Negro for Piano and String Orchestra: Quasi Pasacaglia - Grave - Solemne
DR13      -0.54 dB   -18.64 dB      5:22 09-Concierto en Blanco y Negro for Piano and String Orchestra: Energico
DR11      -2.16 dB   -19.39 dB      2:44 10-Interludes from Dante Porteño: Dante Noir
DR13      -0.35 dB   -18.58 dB      2:29 11-Interludes from Dante Porteño: Vals de Beatriz
DR11       0.00 dB   -14.41 dB      2:09 12-Interludes from Dante Porteño: The Ninth Circle
--------------------------------------------------------------------------------

Number of tracks:  12
Official DR value: DR12

Samplerate:        48000 Hz
Channels:          2
Bits per sample:   24
Bitrate:           1509 kbps
Codec:             FLAC
================================================================================
Приватный:
Да (DHT отключён)
Размер:
550.57 Мб (577,319,321 байт) » файлов: 14
Участники:
0 раздают, 0 качают (0 участников всего)
Внешние участники:
--- [ Обновить ]
14:52
643
Нет комментариев. Ваш будет первым!