Вы используете незарегистрированную версию компонента "Вкладки"!

Поиск

1958 Chris Connor - Chris Craft (2019) {RevOla} [24-44.1]

1958 Chris Connor - Chris Craft (2019) {RevOla} [24-44.1]
Стили:
Издатель (лейбл):
Битрейт аудио:
lossless
Релизёр (источник):
latimer
Доп. инфо:

Формат записи/Источник записи: [TR24][OF]
Издание: Remastered
Год издания/переиздания диска: 1958/2019
Продолжительность: 00:37:36
Наличие сканов в содержимом раздачи: Нет

Контейнер: FLAC (*.flac)
Тип рипа: tracks
Разрядность: 24/44,1
Количество каналов: 2.0

Источник (релизер): Qobuz

Лог проверки качества
foobar2000 1.4.3 / Dynamic Range Meter 1.1.1
log date: 2021-05-03 22:16:39

--------------------------------------------------------------------------------
Analyzed: Chris Connor / Chris Craft
--------------------------------------------------------------------------------

DR         Peak         RMS     Duration Track
--------------------------------------------------------------------------------
DR11      -4.78 dB   -19.22 dB      3:18 01-Moonlight In Vermont
DR12      -3.18 dB   -17.05 dB      2:16 02-Blow, Gabriel, Blow!
DR13      -5.70 dB   -22.13 dB      3:41 03-Here Lies Love
DR11      -5.64 dB   -18.43 dB      3:05 04-Be A Clown
DR12      -4.15 dB   -19.29 dB      3:58 05-Good For Nothin' (But Love)
DR11      -4.42 dB   -18.35 dB      2:45 06-On The First Warm Day
DR12      -2.15 dB   -17.88 dB      2:12 07-Chinatown My Chinatown
DR12      -4.55 dB   -18.54 dB      2:45 08-One Love Affair
DR11      -5.99 dB   -20.08 dB      3:25 09-The Night We Called It A Day
DR10      -5.42 dB   -17.72 dB      2:03 10-Johnny One Note
DR11      -3.66 dB   -17.80 dB      3:54 11-Lover Man
DR12      -6.26 dB   -21.69 dB      4:20 12-Be My All
--------------------------------------------------------------------------------

Number of tracks:  12
Official DR value: DR12

Samplerate:        44100 Hz
Channels:          2
Bits per sample:   24
Bitrate:           1408 kbps
Codec:             FLAC
================================================================================
Any questions - support@pro-jazz.com. Есть вопросы - support@pro-jazz.com
19:50
68
Нет комментариев. Ваш будет первым!