Поиск

2019 Beat Müller - Stages of a Lifetime Journey {iMD-BeatMüller} [24-48]

2019 Beat Müller - Stages of a Lifetime Journey {iMD-BeatMüller} [24-48]
Стили:
Дата издания диска:
19 июля 2019
Носитель:
WEB
Формат:
PCM
Тип рипа:
tracks
Контейнер:
FLAC (*.flac)
Количество каналов:
2.0
Разрядность/ЧД:
24/48
Битрейт аудио:
lossless
Время звучания:
00:53:34
Наличие сканов:
только обложка
Страна-производитель диска (релиза):
Switzerland
Релизёр (источник):
M0p94ok
Доп. инфо:

За все эти годы я «изобрел» тысячи пьес, мелодий и мотивов для фортепиано - и почти столько же из них снова забыл. Я никогда ничего не записывал и не записывал. Но некоторые вещи были со мной всю жизнь. И этот жизненный путь отражен в альбоме «Этапы жизненного пути».

Этот инструментальный альбом содержит исключительно мои песни. Сам играю на всех инструментах. В то время как ранние пьесы находились под влиянием прогрессивных или арт-рок-групп, таких как Yes, Pink Floyd или Jethro Tull, позже были добавлены фолк, блюз и джаз.

Основной константой этого альбома на самом деле является фортепиано. Оно играет ведущую роль почти в каждой пьесе.

Лог проверки качества
foobar2000 1.6.2 / Dynamic Range Meter 1.1.1
log date: 2021-08-05 19:09:40

--------------------------------------------------------------------------------
Analyzed: Beat Müller / Stages of a Lifetime Journey
--------------------------------------------------------------------------------

DR         Peak         RMS     Duration Track
--------------------------------------------------------------------------------
DR9       -0.53 dB   -10.62 dB      2:48 01-Awakening
DR8       -1.01 dB   -10.43 dB      6:24 02-Trip-Stones on the Path
DR9       -0.60 dB   -10.67 dB      6:25 03-Sujet
DR8       -0.66 dB   -10.86 dB      3:53 04-Jana's Tango
DR8       -0.91 dB   -11.01 dB      6:19 05-Pentalogical Blues
DR8       -0.32 dB    -9.93 dB      4:44 06-Don't Run Away from Your Soul's Destiny
DR8       -1.67 dB   -11.56 dB      4:55 07-Sad Little Child Singing  (Piano Solo)
DR6       -0.34 dB    -9.91 dB      4:03 08-Reawakening
DR7       -0.96 dB    -9.18 dB      3:50 09-Sorry to Have Forgotten
DR7       -0.30 dB    -9.23 dB      4:27 10-On the Ridge of the Mountain of a Mystical Island
DR7       -0.80 dB    -8.94 dB      3:04 11-Works as Designed
DR9       -0.68 dB   -12.55 dB      2:42 12-Something's Complete  (Piano Solo)
--------------------------------------------------------------------------------

Number of tracks:  12
Official DR value: DR8

Samplerate:        48000 Hz
Channels:          2
Bits per sample:   24
Bitrate:           1119 kbps
Codec:             FLAC
================================================================================
No seeders - write personal message to M0p94ok. Any questions - support@pro-jazz.com.
Нет сидеров - пишите в личку M0p94ok. Есть вопросы - support@pro-jazz.com
19:15
42
Нет комментариев. Ваш будет первым!