Поиск

2020 Gary Bartz & Maisha - Night Dreamer Direct-To-Disc Sessions {Night Dreamer} [24-96]

2020 Gary Bartz & Maisha - Night Dreamer Direct-To-Disc Sessions {Night Dreamer} [24-96]
Дата записи диска:
29 октября - 30 октября 2019
Место записи:
Artone Studio, Haarlem, The Netherlands
Дата издания диска:
29 мая 2020
Носитель:
WEB
Формат:
PCM
Тип рипа:
tracks
Контейнер:
FLAC (*.flac)
Количество каналов:
2.0
Разрядность/ЧД:
24/96
Битрейт аудио:
lossless
Время звучания:
00:35:20
Наличие сканов:
только обложка
Страна-производитель диска (релиза):
UK
Релизёр (источник):
latimer
Лог проверки качества
foobar2000 1.4.3 / Dynamic Range Meter 1.1.1
log date: 2021-04-25 05:21:56

--------------------------------------------------------------------------------
Analyzed: Gary Bartz & Maisha / Gary Bartz & Maisha - Night Dreamer Direct-To-Disc Sessions
--------------------------------------------------------------------------------

DR         Peak         RMS     Duration Track
--------------------------------------------------------------------------------
DR12      -0.04 dB   -14.02 dB      8:25 01-Harlem to Haarlem
DR11      -0.68 dB   -13.09 dB      7:36 02-The Stank
DR12      -0.11 dB   -15.03 dB      8:44 03-Leta's Dance
DR11      -0.48 dB   -13.11 dB      3:24 04-Uhuru Sasa
DR12      -0.03 dB   -14.29 dB      7:13 05-Dr. Follows Dance
--------------------------------------------------------------------------------

Number of tracks:  5
Official DR value: DR12

Samplerate:        96000 Hz
Channels:          2
Bits per sample:   24
Bitrate:           2842 kbps
Codec:             FLAC
================================================================================
No seeders - write personal message to M0p94ok. Any questions - support@pro-jazz.com.
Нет сидеров - пишите в личку M0p94ok. Есть вопросы - support@pro-jazz.com
13:17
40
Нет комментариев. Ваш будет первым!