Вы используете незарегистрированную версию компонента "Вкладки"!

Поиск

2019 Adrien Losco Quartet - Réflexions {jazz family} [24-44.1]

2019 Adrien Losco Quartet - Réflexions {jazz family} [24-44.1]
Дата издания диска:
27 сентября 2019
Носитель:
WEB
Формат:
PCM
Тип рипа:
tracks
Контейнер:
FLAC (*.flac)
Количество каналов:
2.0
Разрядность/ЧД:
24/44,1
Битрейт аудио:
lossless
Время звучания:
00:56:55
Наличие сканов:
только обложка
Релизёр (источник):
M0p94ok
Лог проверки качества
foobar2000 1.6.2 / Dynamic Range Meter 1.1.1
log date: 2021-08-05 12:56:48

--------------------------------------------------------------------------------
Analyzed: Adrien Losco Quartet / Réflexions
--------------------------------------------------------------------------------

DR         Peak         RMS     Duration Track
--------------------------------------------------------------------------------
DR12      -0.10 dB   -14.86 dB      8:01 01-Sous haute surveillance
DR12      -0.10 dB   -16.59 dB      2:54 02-Réflexion #1
DR13      -0.10 dB   -14.33 dB      5:36 03-Le boiteux
DR14      -0.10 dB   -16.98 dB      8:03 04-Seul tout
DR11      -0.10 dB   -15.09 dB      3:03 05-Réflexion #2
DR14      -0.10 dB   -16.50 dB      4:48 06-Verra bien qui vivra
DR12      -0.33 dB   -16.16 dB     10:26 07-Sarabande
DR11      -0.10 dB   -14.17 dB      4:35 08-Réflexion #3
DR14      -0.90 dB   -22.34 dB      3:43 09-Stella by Starlight
DR12      -1.16 dB   -16.77 dB      5:50 10-Complainte tranquille (Pour dépressifs avertis)
--------------------------------------------------------------------------------

Number of tracks:  10
Official DR value: DR12

Samplerate:        44100 Hz
Channels:          2
Bits per sample:   24
Bitrate:           1301 kbps
Codec:             FLAC
================================================================================
Any questions - support@pro-jazz.com. Есть вопросы - support@pro-jazz.com
13:05
85
Нет комментариев. Ваш будет первым!