Поиск

2021 Noah Haidu - Slowly: Song For Keith Jarrett {Sunnyside} [24-96]

2021 Noah Haidu - Slowly: Song For Keith Jarrett {Sunnyside} [24-96]
Стили:
Дата записи диска:
21 ноября - 22 ноября 2020
Место записи:
Sear Sound Studio, New York City, NY, USA
Дата издания диска:
7 мая 2021
Издатель (лейбл):
Битрейт аудио:
lossless
Доп. инфо:

Формат записи/Источник записи: [TR24][OF]
Наличие водяных знаков: Нет
Год издания: 2021
Продолжительность: 01:15:52
Наличие сканов в содержимом раздачи: Только обложка альбома
Контейнер: FLAC (*.flac)
Тип рипа: tracks
Разрядность: 24/96
Формат: PCM
Количество каналов: 2.0
Источник (релизер): hdtracks.com

Лог проверки качества
foobar2000 1.4.8 / Dynamic Range Meter 1.1.1
log date: 2021-05-08 08:23:45

--------------------------------------------------------------------------------
Analyzed: Noah Haidu / Slowly: Song For Keith Jarrett
--------------------------------------------------------------------------------

DR         Peak         RMS     Duration Track
--------------------------------------------------------------------------------
DR17      -0.10 dB   -20.06 dB     10:38 01-Air Dancing
DR16      -1.16 dB   -20.79 dB      9:14 02-Duchess
DR16      -0.10 dB   -20.26 dB     10:08 03-What a Difference a Day Makes
DR15      -0.10 dB   -18.81 dB     12:32 04-Rainbow / Keith Jarrett
DR15      -0.10 dB   -20.67 dB      7:33 05-Georgia
DR15      -3.38 dB   -21.99 dB      5:36 06-Slowly
DR15      -0.10 dB   -18.64 dB     10:24 07-Lorca
DR14      -6.85 dB   -26.11 dB      9:51 08-But Beautiful
--------------------------------------------------------------------------------

Number of tracks:  8
Official DR value: DR15
Samplerate:        96000 Hz
Channels:          2
Bits per sample:   24
Bitrate:           2613 kbps
Codec:             FLAC
================================================================================
No seeders - write personal message to M0p94ok. Any questions - support@pro-jazz.com.
Нет сидеров - пишите в личку M0p94ok. Есть вопросы - support@pro-jazz.com
16:38
58
Нет комментариев. Ваш будет первым!