Вы используете незарегистрированную версию компонента "Вкладки"!

Поиск

2021 Tony Allen - There Is No End {Universal, Decca} [24-96]

2021 Tony Allen - There Is No End {Universal, Decca} [24-96]
Стили:
Дата издания диска:
30 апреля 2021
Издатель (лейбл):
Носитель:
WEB
Формат:
PCM
Тип рипа:
tracks
Контейнер:
FLAC (*.flac)
Количество каналов:
2.0
Разрядность/ЧД:
24/96
Битрейт аудио:
lossless
Время звучания:
00:42:39
Наличие сканов:
только обложка
Страна-производитель диска (релиза):
France
Релизёр (источник):
M0p94ok
Лог проверки качества
foobar2000 1.4.8 / Dynamic Range Meter 1.1.1
log date: 2021-05-08 08:14:32

--------------------------------------------------------------------------------
Analyzed: Tony Allen / There Is No End
--------------------------------------------------------------------------------

DR         Peak         RMS     Duration Track
--------------------------------------------------------------------------------
DR9       -0.40 dB   -13.03 dB      0:29 01-Tony’s Praeludium
DR8       -0.38 dB    -9.34 dB      2:31 02-Stumbling Down
DR9       -0.40 dB   -12.22 dB      3:18 03-Crushed Grapes
DR8       -0.40 dB    -9.89 dB      3:23 04-Très magnifique
DR9       -0.40 dB   -10.62 dB      3:09 05-Mau Mau
DR7       -0.40 dB   -10.18 dB      3:08 06-Coonta Kinte
DR7       -0.40 dB    -9.37 dB      4:19 07-Rich Black
DR9       -0.40 dB   -10.16 dB      3:21 08-One Inna Million
DR7       -0.40 dB    -8.83 dB      3:04 09-Gang On Holiday (Em I Go We?)
DR7       -0.40 dB    -8.32 dB      4:03 10-Deer In Headlights
DR7       -0.40 dB    -9.72 dB      2:59 11-Hurt Your Soul
DR8       -0.40 dB   -10.06 dB      3:46 12-My Own
DR8       -0.40 dB   -10.10 dB      4:45 13-Cosmosis
DR14      -0.40 dB   -16.68 dB      0:26 14-There’s No End
--------------------------------------------------------------------------------

Number of tracks:  14
Official DR value: DR8
Samplerate:        96000 Hz
Channels:          2
Bits per sample:   24
Bitrate:           2415 kbps
Codec:             FLAC
================================================================================
Any questions - support@pro-jazz.com. Есть вопросы - support@pro-jazz.com
16:06
81
Нет комментариев. Ваш будет первым!