Поиск

1959 Chris Connor - Sings Ballads of the Sad Cafe (2019) {RevOla} [24-44.1]

1959 Chris Connor - Sings Ballads of the Sad Cafe (2019) {RevOla} [24-44.1]
Дата записи диска:
29 января - 19 апреля 1959
Издатель (лейбл):
Носитель:
WEB
Формат:
PCM
Тип рипа:
tracks
Контейнер:
FLAC (*.flac)
Количество каналов:
2.0
Разрядность/ЧД:
24/44,1
Битрейт аудио:
lossless
Время звучания:
00:37:40
Наличие сканов:
только обложка
Страна-производитель диска (релиза):
USA
Релизёр (источник):
latimer
Лог проверки качества
foobar2000 1.4.3 / Dynamic Range Meter 1.1.1
log date: 2021-05-05 16:16:53

--------------------------------------------------------------------------------
Analyzed: Chris Connor / Sings Ballads of the Sad Cafe
--------------------------------------------------------------------------------

DR         Peak         RMS     Duration Track
--------------------------------------------------------------------------------
DR8       -2.88 dB   -14.57 dB      3:37 01-These Foolish Things
DR8       -2.15 dB   -14.69 dB      3:13 02-Bargain Day
DR9       -1.78 dB   -15.52 dB      3:48 03-End of a Love Affair
DR10      -2.22 dB   -16.90 dB      3:32 04-Glad to Be Unhappy
DR9       -3.20 dB   -16.28 dB      4:59 05-Ballad of the Sad Cafe
DR8       -1.38 dB   -14.46 dB      4:23 06-Good Morning Heartache
DR10      -3.38 dB   -17.52 dB      4:27 07-Somethig I Dreamed Last Night
DR9       -2.49 dB   -17.09 dB      4:52 08-Lilac Wine
DR11      -2.85 dB   -17.83 dB      4:54 09-One for My Baby
--------------------------------------------------------------------------------

Number of tracks:  9
Official DR value: DR9

Samplerate:        44100 Hz
Channels:          2
Bits per sample:   24
Bitrate:           1356 kbps
Codec:             FLAC
================================================================================
No seeders - write personal message to M0p94ok. Any questions - support@pro-jazz.com.
Нет сидеров - пишите в личку M0p94ok. Есть вопросы - support@pro-jazz.com
14:18
43
Нет комментариев. Ваш будет первым!