Поиск

2019 Fay Victor - Barn Songs {Northern Spy} [24-44.1]

2019 Fay Victor - Barn Songs {Northern Spy} [24-44.1]
Дата записи диска:
6 сентября 2018
Место записи:
Looking Glass Arts, near West Fulton, NY
Дата издания диска:
15 ноября 2019
Носитель:
WEB
Формат:
PCM
Тип рипа:
tracks
Контейнер:
FLAC (*.flac)
Количество каналов:
2.0
Разрядность/ЧД:
24/44,1
Битрейт аудио:
lossless
Время звучания:
00:36:56
Наличие сканов:
только обложка
Страна-производитель диска (релиза):
USA
Релизёр (источник):
M0p94ok
Доп. инфо:

Когда в 90-х Фэй Виктор обнаружила, что пытается прорваться на джазовую сцену Нью-Йорка, певица и композитор рискнула переехать в Амстердам, чтобы отточить свой голос и развить свои импровизационные инстинкты - шаг, который превратил Виктор из прямолинейной джазовой певицы в смелого вокального импровизатора. Спустя более 20 лет Виктор пересмотрела амстердамские композиции для Barn Songs, своего десятого альбома в качестве лидера группы. Экспериментальный проект, записанный вместе с виолончелисткой Марикой Хьюз и альт-саксофонистом Дариусом Джонсом, был реализован в полуразрушенном сарае, принадлежащем Хьюзу, в северных предгорьях холмов Кэтскиллс. Трио превратило здание в органический звукозаписывающий комплекс на три дня, в котором проносились птицы и белки, добавляя натуралистической атмосфере миксу. Примечательно, что песни, которые Виктор написала, проживая другую жизнь в другой стране, оказались пророческими комментариями о современном образе жизни, который мы живем сегодня.

Лог проверки качества
foobar2000 1.6.2 / Dynamic Range Meter 1.1.1
log date: 2021-08-11 16:11:00

--------------------------------------------------------------------------------
Analyzed: Fay Victor / Barn Songs
--------------------------------------------------------------------------------

DR         Peak         RMS     Duration Track
--------------------------------------------------------------------------------
DR10      -0.32 dB   -14.34 dB      4:48 01-Dream State
DR12      -0.50 dB   -14.92 dB      3:16 02-Last Night's Dinner
DR11      -2.06 dB   -18.56 dB      5:07 03-Stealaway
DR11      -0.48 dB   -13.62 dB      5:34 04-Sometimes
DR11      -0.48 dB   -14.23 dB      3:13 05-Talk Talk, Pt. 2
DR12      -0.51 dB   -15.80 dB      9:47 06-Nico
DR10      -0.50 dB   -13.71 dB      5:12 07-There They Are
--------------------------------------------------------------------------------

Number of tracks:  7
Official DR value: DR11

Samplerate:        44100 Hz
Channels:          2
Bits per sample:   24
Bitrate:           1452 kbps
Codec:             FLAC
================================================================================
No seeders - write personal message to M0p94ok. Any questions - support@pro-jazz.com.
Нет сидеров - пишите в личку M0p94ok. Есть вопросы - support@pro-jazz.com
17:24
56
Нет комментариев. Ваш будет первым!