Вы используете незарегистрированную версию компонента "Вкладки"!

Поиск

1967 Django Reinhardt - Django Reinhardt (2019) {Archive of Folk Jazz Music} [24-44.1]

1967 Django Reinhardt - Django Reinhardt (2019) {Archive of Folk Jazz Music} [24-44.1]
Дата издания диска:
7 марта 2019
Носитель:
WEB
Формат:
PCM
Тип рипа:
tracks
Контейнер:
FLAC (*.flac)
Количество каналов:
2.0
Разрядность/ЧД:
24/44,1
Битрейт аудио:
lossless
Время звучания:
00:39:25
Наличие сканов:
только обложка
Страна-производитель диска (релиза):
USA
Релизёр (источник):
latimer
Лог проверки качества
foobar2000 1.4.3 / Dynamic Range Meter 1.1.1
log date: 2021-05-06 14:53:30

--------------------------------------------------------------------------------
Analyzed: Django Reinhardt / Django Reinhardt
--------------------------------------------------------------------------------

DR         Peak         RMS     Duration Track
--------------------------------------------------------------------------------
DR11      -1.17 dB   -15.30 dB      3:37 01-September Song
DR11      -1.17 dB   -14.90 dB      2:58 02-Gypsy Swing
DR10      -1.17 dB   -16.12 dB      3:05 03-Mano
DR9       -1.17 dB   -11.73 dB      3:28 04-Fantasie
DR10      -1.17 dB   -14.34 dB      3:16 05-Melodie au crepuscule
DR7       -1.17 dB    -9.37 dB      2:59 06-Swing Guitar
DR10      -1.17 dB   -13.97 dB      3:49 07-Manoir de mes reves
DR8       -1.17 dB   -10.51 dB      2:58 08-Folie a amphion
DR8       -1.17 dB   -11.02 dB      3:53 09-Swing de Paris
DR9       -1.17 dB   -13.04 dB      3:22 10-Nuages
DR7       -1.17 dB    -9.81 dB      3:03 11-Swing 40
DR11      -1.17 dB   -14.57 dB      3:02 12-Gypsy with a Song
--------------------------------------------------------------------------------

Number of tracks:  12
Official DR value: DR9

Samplerate:        44100 Hz
Channels:          2
Bits per sample:   24
Bitrate:           1331 kbps
Codec:             FLAC
================================================================================
Any questions - support@pro-jazz.com. Есть вопросы - support@pro-jazz.com
19:09
69
Нет комментариев. Ваш будет первым!