Вы используете незарегистрированную версию компонента "Вкладки"!

Поиск

2019 Genzo Okabe & Okabe Family - Dialect {Challenge} [24-96]

2019 Genzo Okabe & Okabe Family - Dialect {Challenge} [24-96]
Стили:
Дата издания диска:
4 октября 2019
Издатель (лейбл):
Носитель:
WEB
Формат:
PCM
Тип рипа:
tracks
Контейнер:
FLAC (*.flac)
Количество каналов:
2.0
Разрядность/ЧД:
24/96
Битрейт аудио:
lossless
Время звучания:
00:45:19
Наличие сканов:
только обложка
Релизёр (источник):
M0p94ok
Доп. инфо:

Гензо Окабе: «В проекте« Семья Окабе », в том числе в этом альбоме, я около 10 лет создавал музыку, полагаясь только на свои чувства, не зацикливаясь на том, что является подлинным или что является прогрессом. Будь то настоящий джаз или нет, это вообще не проблема с моей личной точки зрения. Создайте что-то добровольно и выбросьте это на глобальную платформу. Затем, если кто-то где-то в мире отреагирует каким-либо образом, появится новое движение. Я надеюсь, что локализация побудит художников создавать новые сообщества в смысле музыкальных интересов, а не национальных или географических рамок, а разнообразие музыки, как и многие диалекты, обогащают все наше общество ».

https://www.prostudiomasters.com/album/page/42388

https://www.highresaudio.com/en/album/view/boia2x/genzo-okabe-okabe-family-dialect

Лог проверки качества
foobar2000 1.6.2 / Dynamic Range Meter 1.1.1
log date: 2021-08-11 19:23:57

--------------------------------------------------------------------------------
Analyzed: Genzo Okabe & Okabe Family / Dialect
--------------------------------------------------------------------------------

DR         Peak         RMS     Duration Track
--------------------------------------------------------------------------------
DR10      -0.10 dB   -11.72 dB      7:29 01-Hybrid
DR11      -0.10 dB   -13.40 dB      6:53 02-Layers
DR10      -0.10 dB   -11.45 dB      7:28 03-Arpeggio
DR13      -0.10 dB   -17.01 dB      4:04 04-Triad
DR10      -0.10 dB   -11.61 dB      6:35 05-Sincope
DR10      -0.10 dB   -11.78 dB      7:22 06-Random
DR10      -0.10 dB   -12.40 dB      5:28 07-Ambient
--------------------------------------------------------------------------------

Number of tracks:  7
Official DR value: DR11

Samplerate:        96000 Hz
Channels:          2
Bits per sample:   24
Bitrate:           2793 kbps
Codec:             FLAC
================================================================================
Any questions - support@pro-jazz.com. Есть вопросы - support@pro-jazz.com
19:35
108
Нет комментариев. Ваш будет первым!