Поиск

1960 Chris Connor - Portrait Of Chris (2019) {RevOla} [24-44.1]

1960 Chris Connor - Portrait Of Chris (2019) {RevOla} [24-44.1]
Стили:
Дата переиздания диска:
22 октября 2019
Издатель (лейбл):
Битрейт аудио:
lossless
Доп. инфо:

Формат записи/Источник записи: [TR24][OF]
Издание: Remastered
Год издания/переиздания диска: 1960/2019
Продолжительность: 00:34:56
Наличие сканов в содержимом раздачи: Нет

Контейнер: FLAC (*.flac)
Тип рипа: tracks
Разрядность: 24/44,1
Количество каналов: 2.0

Источник (релизер): Qobuz

Лог проверки качества
foobar2000 1.4.3 / Dynamic Range Meter 1.1.1
log date: 2021-05-04 21:56:37

--------------------------------------------------------------------------------
Analyzed: Chris Connor / Portrait Of Chris
--------------------------------------------------------------------------------

DR         Peak         RMS     Duration Track
--------------------------------------------------------------------------------
DR9        0.00 dB   -11.67 dB      2:50 01-Follow Me (Remastered)
DR8        0.00 dB   -10.63 dB      2:45 02-Alone Together (Remastered)
DR9        0.00 dB   -11.65 dB      2:54 03-All Too Soon (Remastered)
DR8       -0.01 dB   -10.12 dB      2:48 04-Love (Remastered)
DR9        0.00 dB   -12.89 dB      3:25 05-Where Flamingos Fly (Remastered)
DR9       -0.01 dB   -12.43 dB      3:03 06-Here's That Rainy Day (Remastered)
DR8        0.00 dB   -10.22 dB      2:27 07-Day In, Day Out (Remastered)
DR9        0.00 dB   -10.94 dB      2:48 08-If I Should Lose You (Remastered)
DR9        0.00 dB   -11.92 dB      2:23 09-I Gotta Right To Sing The Blues (Remastered)
DR9        0.00 dB   -11.33 dB      2:48 10-Harlequin (Remastered)
DR9        0.00 dB   -11.95 dB      4:20 11-I'm Glad There Is You (Remastered)
DR9       -0.01 dB   -12.60 dB      2:32 12-Sweet William (Remastered)
--------------------------------------------------------------------------------

Number of tracks:  12
Official DR value: DR9

Samplerate:        44100 Hz
Channels:          2
Bits per sample:   24
Bitrate:           1319 kbps
Codec:             FLAC
================================================================================
No seeders - write personal message to M0p94ok. Any questions - support@pro-jazz.com.
Нет сидеров - пишите в личку M0p94ok. Есть вопросы - support@pro-jazz.com
22:54
52
Нет комментариев. Ваш будет первым!