Вы используете незарегистрированную версию компонента "Вкладки"!

Поиск

1971 Miles Davis - Live Evil (2020) {Columbia, Sony} [DST64]

1971 Miles Davis - Live Evil (2020) {Columbia, Sony} [DST64]
Стили:
Дата записи диска:
6 февраля, 3 июня - 4 июня, 19 декабря 1970
Место записи:
The Cellar Door, Washington, DC; Columbia Studio B, New York, NY, USA
Дата переиздания диска:
17 ноября 2020
Издатель (лейбл):
Номер по каталогу:
SICJ 10012~3
Битрейт аудио:
lossless
Доп. инфо:

Формат записи/Источник записи: [SACD-R][OF]
Наличие водяных знаков: Нет
Год издания/переиздания диска: 1971/2020
Продолжительность: 01:41:23
Наличие сканов в содержимом раздачи: Да (сканы)

Контейнер: ISO (*.iso)
Тип рипа: image
Разрядность: 64(2,8 MHz/1 Bit)
Формат: DST64
Количество каналов: 5.0, 2.0

Источник (релизер): KingCrim (PS³SACD)
https://www.cdjapan.co.jp/product/SICJ-10012

Лог проверки качества
foobar2000 1.3.13 / Замер динамического диапазона (DR) 1.1.1
Дата отчёта:  2020-05-26 23:07:25

--------------------------------------------------------------------------------
Анализ:   Miles Davis / Live Evil
--------------------------------------------------------------------------------

DR         Пики         RMS           Продолжительность трека
--------------------------------------------------------------------------------
DR9       -4.31 дБ   -21.70 дБ     14:53 01-Sivad
DR7       -8.41 дБ   -23.05 дБ      3:14 02-Little Church
DR10      -5.14 дБ   -23.30 дБ      5:54 03-Medley:Gemini/Double Image
DR9       -3.07 дБ   -19.12 дБ     20:57 04-What I Say
DR8       -7.01 дБ   -23.00 дБ      4:07 05-Nem Um Talvez
--------------------------------------------------------------------------------

Количество треков: 5
Реальные значения DR: DR9

Частота:   2822400 Гц / Частота PCM: 88200 Гц
Каналов:   5
Разрядность:   24
Битрейт:   14112 кбит/с
Кодек:   DST64
================================================================================

--------------------------------------------------------------------------------
Анализ:   Miles Davis / Live Evil
--------------------------------------------------------------------------------

DR         Пики         RMS           Продолжительность трека
--------------------------------------------------------------------------------
DR11      -6.14 дБ   -19.83 дБ     15:14 01-Sivad
DR9       -6.90 дБ   -19.20 дБ      3:15 02-Little Church
DR11      -6.17 дБ   -19.62 дБ      5:54 03-Medley:Gemini/Double Image
DR10      -7.27 дБ   -19.43 дБ     21:09 04-What I Say
DR10      -6.45 дБ   -20.44 дБ      4:03 05-Nem Um Talvez
--------------------------------------------------------------------------------

Количество треков: 5
Реальные значения DR: DR10

Частота:   2822400 Гц / Частота PCM: 88200 Гц
Каналов:   2
Разрядность:   24
Битрейт:   5645 кбит/с
Кодек:   DSD64
================================================================================

foobar2000 1.3.13 / Замер динамического диапазона (DR) 1.1.1
Дата отчёта:  2020-05-26 23:29:15

--------------------------------------------------------------------------------
Анализ:   Miles Davis / Live Evil
--------------------------------------------------------------------------------

DR         Пики         RMS           Продолжительность трека
--------------------------------------------------------------------------------
DR8       -7.81 дБ   -22.73 дБ      2:18 01-Selim
DR9       -4.37 дБ   -19.95 дБ     23:15 02-Funky Tonk
DR9       -3.69 дБ   -19.04 дБ     26:22 03-Inamorata and Narration By Conrad Roberts
--------------------------------------------------------------------------------

Количество треков: 3
Реальные значения DR: DR8

Частота:   2822400 Гц / Частота PCM: 88200 Гц
Каналов:   5
Разрядность:   24
Битрейт:   14112 кбит/с
Кодек:   DST64
================================================================================

--------------------------------------------------------------------------------
Анализ:   Miles Davis / Live Evil
--------------------------------------------------------------------------------

DR         Пики         RMS           Продолжительность трека
--------------------------------------------------------------------------------
DR9       -9.35 дБ   -23.97 дБ      2:14 01-Selim
DR10      -7.37 дБ   -20.62 дБ     23:26 02-Funky Tonk
DR11      -6.13 дБ   -19.29 дБ     26:31 03-Inamorata and Narration By Conrad Roberts
--------------------------------------------------------------------------------

Количество треков: 3
Реальные значения DR: DR10

Частота:   2822400 Гц / Частота PCM: 88200 Гц
Каналов:   2
Разрядность:   24
Битрейт:   5645 кбит/с
Кодек:   DSD64
================================================================================
Any questions - support@pro-jazz.com. Есть вопросы - support@pro-jazz.com
20:54
319
Нет комментариев. Ваш будет первым!