Поиск

2020 Simin Tander - Unfading {Jazzhaus} [24-96]

2020 Simin Tander - Unfading {Jazzhaus} [24-96]
Дата издания диска:
9 октября 2020
Битрейт аудио:
lossless

Треклист:

01. Hovering Winds (1:28)
02. Nargees (2:31)
03. Walk Each Other Home (6:45)
04. Feather / I Am Vertical (4:19)
05. Sta Lorey (4:46)
06. Walli De Haal Ne Wayee (3:44)
07. Unfading (4:59)
08. Yar Kho Laro (4:28)
09. Deserted (1:58)
10. Nana (2:47)
11. The Sea Is Near (3:24)
12. Breath (1:06)
13. Nargees Afterglow (3:05)
14. And the Water Stretches Far Away (4:41)
15. The Times They Are A-Changin´ (4:56)

Лог проверки качества
foobar2000 1.1.15 / Dynamic Range Meter 1.1.1
log date: 2020-11-03 13:46:42

--------------------------------------------------------------------------------
Analyzed: Simin Tander / Unfading
--------------------------------------------------------------------------------

DR         Peak         RMS     Duration Track
--------------------------------------------------------------------------------
DR11      -1.46 dB   -17.99 dB      1:28 01-Hovering Winds
DR9       -0.59 dB   -12.44 dB      2:31 02-Nargees
DR9       -0.59 dB   -12.22 dB      6:45 03-Walk Each Other Home
DR9       -0.59 dB   -12.48 dB      4:19 04-Feather / I Am Vertical
DR7       -0.59 dB    -9.40 dB      4:46 05-Sta Lorey
DR10      -0.59 dB   -14.69 dB      3:44 06-Walli De Haal Ne Wayee
DR9       -0.59 dB   -11.82 dB      4:59 07-Unfading
DR8       -0.59 dB   -10.12 dB      4:28 08-Yar Kho Laro
DR9       -0.59 dB   -11.21 dB      1:58 09-Deserted
DR8       -0.59 dB   -12.62 dB      2:47 10-Nana
DR10      -0.59 dB   -13.49 dB      3:24 11-The Sea Is Near
DR10      -0.59 dB   -16.43 dB      1:06 12-Breath
DR7       -0.59 dB    -9.26 dB      3:05 13-Nargees Afterglow
DR9       -0.59 dB   -12.51 dB      4:41 14-And the Water Stretches Far Away
DR8       -0.59 dB   -12.24 dB      4:56 15-The Times They Are A-Changin´
--------------------------------------------------------------------------------

Number of tracks:  15
Official DR value: DR9

Samplerate:        96000 Hz
Channels:          2
Bits per sample:   24
Bitrate:           2506 kbps
Codec:             FLAC
================================================================================
Приватный:
Нет (DHT включён)
Размер:
1.02 Гб (1,095,785,498 байт) » файлов: 19
Участники:
0 раздают, 0 качают (0 участников всего)
Внешние участники:
10 раздают, 3 качают (13 участников всего) [ Обновить ]
No seeders - write personal message to M0p94ok. Any questions - support@pro-jazz.com.
Нет сидеров - пишите в личку M0p94ok. Есть вопросы - support@pro-jazz.com
19:33
193
Нет комментариев. Ваш будет первым!