Поиск

2020 Sidney de Paris - Say Something {Nagel Heyer} [24-44,1]

2020 Sidney de Paris - Say Something {Nagel Heyer} [24-44,1]
Издатель (лейбл):
Битрейт аудио:
lossless

Треклист:

01 - Sweethearts on Parade 03:41
02 - Down Home Rag 03:42
03 - Tishomingo Blues 05:15
04 - Flow Gently, Sweet Afton 04:52
05 - Over and over Again 03:21
06 - Careless Love 02:56
07 - See See Rider 05:26
08 - Oh Baby 03:56
09 - Wabash Blues 03:15
10 - Baby, Won't You Please Come Home 04:23
11 - Madagascar 06:25
12 - Royal Garden Blues 02:47
13 - You Tell Me Your Dream 05:07
14 - Basin Street Blues 06:26
15 - How Ya Gonna Keep 'Em Down on the Farm (After They've Seen Paris) 01:49
16 - Li'l Liza Jane 04:07
17 - Good Night Irene 03:18
18 - Just a Closer Walk with Thee 03:53
19 - Ja-Da 02:43
20 - Table Thumpers Rag 02:58

Доп. инфо:

Формат записи/Источник записи: [TR24][OF]
Издание: Remastered
Год издания/переиздания диска: 2020
Продолжительность: 01:20:20
Наличие сканов в содержимом раздачи: Нет

Контейнер: FLAC (*.flac)
Тип рипа: tracks
Разрядность: 24/44,1
Количество каналов: 2.0

Источник (релизер): Qobuz

Лог проверки качества
foobar2000 1.4.6 / Dynamic Range Meter 1.1.1
log date: 2020-09-28 00:00:39

--------------------------------------------------------------------------------
Analyzed: Sidney de Paris / Say Something
--------------------------------------------------------------------------------

DR         Peak         RMS     Duration Track
--------------------------------------------------------------------------------
DR9       -1.00 dB   -12.09 dB      3:41 01-Sweethearts on Parade
DR8       -1.00 dB   -11.07 dB      3:42 02-Down Home Rag
DR9       -1.00 dB   -12.81 dB      5:16 03-Tishomingo Blues
DR9       -1.00 dB   -12.02 dB      4:52 04-Flow Gently, Sweet Afton
DR8       -1.00 dB   -11.50 dB      3:22 05-Over and over Again
DR8       -1.00 dB   -12.55 dB      2:56 06-Careless Love
DR9       -1.00 dB   -11.93 dB      5:26 07-See See Rider
DR8       -1.00 dB   -10.77 dB      3:57 08-Oh Baby
DR8       -1.00 dB   -11.21 dB      3:15 09-Wabash Blues
DR9       -1.00 dB   -12.58 dB      4:23 10-Baby, Won't You Please Come Home
DR10      -1.00 dB   -12.93 dB      6:25 11-Madagascar
DR8       -1.00 dB   -10.94 dB      2:48 12-Royal Garden Blues
DR8       -1.00 dB   -11.19 dB      5:08 13-You Tell Me Your Dream
DR8       -1.00 dB   -11.58 dB      6:26 14-Basin Street Blues
DR8       -1.00 dB   -10.81 dB      1:49 15-How Ya Gonna Keep 'Em Down on the Farm (After They've Seen Paris)
DR9       -1.00 dB   -12.23 dB      4:08 16-Li'l Liza Jane
DR8       -1.00 dB   -11.47 dB      3:19 17-Good Night Irene
DR8       -1.00 dB   -12.89 dB      3:54 18-Just a Closer Walk with Thee
DR8       -1.00 dB   -11.36 dB      2:43 19-Ja-Da
DR7       -1.00 dB   -10.67 dB      2:59 20-Table Thumpers Rag
--------------------------------------------------------------------------------

Number of tracks:  20
Official DR value: DR8

Samplerate:        44100 Hz
Channels:          2
Bits per sample:   24
Bitrate:           1579 kbps
Codec:             FLAC
================================================================================
Приватный:
Нет (DHT включён)
Размер:
924.92 Мб (969,848,251 байт) » файлов: 25
Участники:
0 раздают, 0 качают (0 участников всего)
Внешние участники:
2 раздают, 1 качают (3 участников всего) [ Обновить ]
No seeders - write personal message to M0p94ok. Нет сидеров - пишите в личку M0p94ok.
02:08
139
Нет комментариев. Ваш будет первым!