Вы используете незарегистрированную версию компонента "Вкладки"!

Поиск

1962 Etta Jones - Hollar! (2019) {RevOla} [24-44,1]

1962 Etta Jones - Hollar! (2019) {RevOla} [24-44,1]
Стили:
Издатель (лейбл):
Битрейт аудио:
lossless
Доп. инфо:

Формат записи/Источник записи: [TR24][OF]
Издание: Remastered
Год издания/переиздания диска: 1962/2019
Продолжительность: 00:33:34
Наличие сканов в содержимом раздачи: Нет

Контейнер: FLAC (*.flac)
Тип рипа: tracks
Разрядность: 24/44,1
Количество каналов: 2.0

Источник (релизер): Qobuz

Лог проверки качества
foobar2000 1.3.16 / Dynamic Range Meter 1.1.1
log date: 2019-03-23 03:28:40

--------------------------------------------------------------------------------
Analyzed: Etta Jones / Hollar!
--------------------------------------------------------------------------------

DR         Peak         RMS     Duration Track
--------------------------------------------------------------------------------
DR13      -1.04 dB   -17.30 dB      2:37 01-And The Angels Sing
DR13      -1.78 dB   -19.07 dB      4:11 02-I Got It Bad And That Ain't Good
DR12      -0.63 dB   -16.32 dB      2:54 03-Give Me The Simple Life
DR11      -1.07 dB   -17.42 dB      4:14 04-The More I See You
DR12      -1.24 dB   -16.84 dB      3:50 05-Our Love Is Here To Stay
DR12      -1.55 dB   -17.41 dB      2:59 06-Reverse The Charges
DR12      -1.64 dB   -16.52 dB      2:53 07-They Can't Take That Away From Me
DR15      -1.75 dB   -19.34 dB      3:20 08-Answer Me, My Love
DR13      -1.34 dB   -18.69 dB      3:44 09-Looking Back
DR12      -0.77 dB   -15.64 dB      2:56 10-Nature Boy
--------------------------------------------------------------------------------

Number of tracks:  10
Official DR value: DR12

Samplerate:        44100 Hz
Channels:          2
Bits per sample:   24
Bitrate:           1592 kbps
Codec:             FLAC
================================================================================
Any questions - support@pro-jazz.com. Есть вопросы - support@pro-jazz.com
01:56
216
Нет комментариев. Ваш будет первым!