Поиск

2017 Elliott Sharp - ERR Guitar (with Mary Halvorson & Marc Ribot) {Intakt} [24-44,1]

2017 Elliott Sharp - ERR Guitar (with Mary Halvorson & Marc Ribot) {Intakt} [24-44,1]
Дата записи диска:
25 июля - 26 июля 2016
Место записи:
Studio zOaR, Manhattan, NY, USA
Дата издания диска:
19 мая 2017
Издатель (лейбл):
Номер по каталогу:
281
Носитель:
WEB
Формат:
PCM
Тип рипа:
tracks+.cue
Контейнер:
APE (*.ape)
Количество каналов:
2.0
Разрядность/ЧД:
24/44,1
Битрейт аудио:
lossless
Время звучания:
01:05:33
Наличие сканов:
web
Страна-производитель диска (релиза):
USA
Релизёр (источник):
M0p94ok
Лог проверки качества
foobar2000 1.3.16 / Dynamic Range Meter 1.1.1
log date: 2019-04-02 15:52:25

--------------------------------------------------------------------------------
Analyzed: Elliott Sharp / ERR Guitar (with Mary Halvorson & Marc Ribot)
--------------------------------------------------------------------------------

DR         Peak         RMS     Duration Track
--------------------------------------------------------------------------------
DR11      -0.20 dB   -13.79 dB      7:23 01-Blindspot
DR10      -1.15 dB   -14.84 dB      2:46 02-The Ship I Am On
DR10      -0.12 dB   -13.90 dB      7:15 03-Wobbly
DR11      -0.94 dB   -14.98 dB      6:59 04-Shredding Light
DR11      -1.61 dB   -15.15 dB      3:47 05-Sinistre
DR10      -0.16 dB   -14.10 dB      2:39 06-I'm Gonna Party Like It's 1988
DR12      -0.25 dB   -16.32 dB      4:22 07-Sequola Part 1
DR15      -0.23 dB   -18.41 dB      2:59 08-Sequola Part 2
DR11      -1.47 dB   -14.92 dB      9:07 09-Oronym
DR11      -0.74 dB   -14.54 dB      5:03 10-Sea Buzz
DR10      -0.15 dB   -13.28 dB      3:02 11-Nektone
DR11      -0.29 dB   -14.20 dB     10:12 12-Kernel Panic
--------------------------------------------------------------------------------

Number of tracks:  12
Official DR value: DR11

Samplerate:        44100 Hz
Channels:          2
Bits per sample:   24
Bitrate:           1396 kbps
Codec:             FLAC
================================================================================
No seeders - write personal message to M0p94ok. Any questions - support@pro-jazz.com.
Нет сидеров - пишите в личку M0p94ok. Есть вопросы - support@pro-jazz.com
00:08
195
Нет комментариев. Ваш будет первым!