Поиск

1973 Airto Moreira - Fingers & Eumir Deodato - In Concert (2018) {CTI, Vocallion} [DST64]

1973 Airto Moreira - Fingers & Eumir Deodato - In Concert (2018) {CTI, Vocallion} [DST64]
Дата записи диска:
9 апреля - 18 апреля 1973; 20 апреля 1973
Место записи:
Van Gelder Recording Studio, Englewood Cliffs, New Jersey, USA;
Издатель (лейбл):
Битрейт аудио:
lossless

Треклист:

Airto Moreira - Fingers
Lp CTI 6028 (1973) Stereo/Ctsq 6028 Quadraphonic
01: Fingers (El Rada) (Rada; Uzeta)
02: Romance Of Death (H Fattoruso)
03: Merry-Go-Round (Moreira; Purim)
04: Wind Chant (H Fattoruso)
05: Paraná (H Fattoruso)
06: San Francisco River (Purim)
07: Tombo In 7/4 (Moreira)
Eumir Deodato - In Concert
Lp CTI 6041 (1974) Stereo/Ctsq 6041 Quadraphonic
08: Do It Again (Becker; Fagen)
09: Spirit Of Summer (Deodato)
10: Paraná (H Fattoruso)
11: Tropea (Whirlwinds) (Deodato; Tropea)
12: The Branches Of The Rose Tree (O Galho Da Roseira) (Pascoal; Divina)

Доп. инфо:

Формат записи/Источник записи: [SACD-R][OF]
Наличие водяных знаков: Нет
Год издания/переиздания диска: 2018
Продолжительность: 01:10:16
Наличие сканов в содержимом раздачи: Да (сканы)

Контейнер: ISO (*.iso)
Тип рипа: image
Разрядность: 64(2,8 MHz/1 Bit)
Формат: DST64
Количество каналов: 5.1 (4.0 QUADRO), 2.0

Источник (релизер): KingCrim (PS³SACD)
https://www.duttonvocalion.co.uk/proddetail.php?prod=CDSML8544

Лог проверки качества
foobar2000 1.3.13 / Замер динамического диапазона (DR) 1.1.1
Дата отчёта:  2020-05-27 00:05:15

--------------------------------------------------------------------------------
Анализ:   Airto & Deodato  / Fingers & In Concert
--------------------------------------------------------------------------------

DR         Пики         RMS           Продолжительность трека
--------------------------------------------------------------------------------
DR9       -6.86 дБ   -25.01 дБ      4:32 01-Fingers  El Rada
DR9       -7.57 дБ   -25.57 дБ      5:35 02-Romance of Death
DR9       -8.05 дБ   -26.22 дБ      2:44 03-MerryGo Round
DR8       -7.26 дБ   -25.29 дБ      5:50 04-Wind Chant
DR8       -7.98 дБ   -25.97 дБ      6:01 05-Parana
DR8       -9.47 дБ   -24.51 дБ      4:10 06-San Francisco River
DR8       -7.02 дБ   -26.32 дБ      6:24 07-Tombo in 7/4
DR9       -6.57 дБ   -24.97 дБ      6:32 08-Do it Again
DR8       -7.89 дБ   -27.97 дБ      5:37 09-Spirit of Summer
DR8       -7.78 дБ   -25.65 дБ      6:51 10-Parana Live
DR10      -6.39 дБ   -27.06 дБ      8:40 11-Tropea  Whirlwinds
DR9       -6.81 дБ   -28.27 дБ      7:18 12-The Branches of the Rose Tree
--------------------------------------------------------------------------------

Количество треков: 12
Реальные значения DR: DR9

Частота:   2822400 Гц / Частота PCM: 88200 Гц
Каналов:   6
Разрядность:   24
Битрейт:   16934 кбит/с
Кодек:   DST64
================================================================================

--------------------------------------------------------------------------------
Анализ:   Airto & Deodato  / Fingers & In Concert
--------------------------------------------------------------------------------

DR         Пики         RMS           Продолжительность трека
--------------------------------------------------------------------------------
DR14      -5.95 дБ   -22.53 дБ      4:32 01-Fingers  El Rada
DR14      -6.38 дБ   -22.76 дБ      5:35 02-Romance of Death
DR15      -7.17 дБ   -25.05 дБ      2:44 03-MerryGo Round
DR13      -6.36 дБ   -22.93 дБ      5:50 04-Wind Chant
DR13      -6.01 дБ   -22.83 дБ      6:01 05-Parana
DR11      -7.31 дБ   -21.58 дБ      4:10 06-San Francisco River
DR13      -6.01 дБ   -23.16 дБ      6:24 07-Tombo in 7/4
DR14      -6.42 дБ   -23.56 дБ      6:32 08-Do it Again
DR14      -8.20 дБ   -27.91 дБ      5:37 09-Spirit of Summer
DR13      -6.73 дБ   -21.76 дБ      6:51 10-Parana Live
DR15      -6.48 дБ   -25.18 дБ      8:40 11-Tropea  Whirlwinds
DR13     -12.46 дБ   -30.76 дБ      7:18 12-The Branches of the Rose Tree
--------------------------------------------------------------------------------

Количество треков: 12
Реальные значения DR: DR13

Частота:   2822400 Гц / Частота PCM: 88200 Гц
Каналов:   2
Разрядность:   24
Битрейт:   5645 кбит/с
Кодек:   DST64
================================================================================
Приватный:
Нет (DHT включён)
Размер:
3.13 Гб (3,364,914,298 байт) » файлов: 9
Участники:
1 раздают, 0 качают (1 участников всего)
Внешние участники:
5 раздают, 2 качают (7 участников всего) [ Обновить ]
No seeders - write personal message to M0p94ok. Any questions - support@pro-jazz.com.
Нет сидеров - пишите в личку M0p94ok. Есть вопросы - support@pro-jazz.com
13:14
290
Нет комментариев. Ваш будет первым!