Вы используете незарегистрированную версию компонента "Вкладки"!

Поиск

2020 Albert Nicholas - As It Is When It Was {Nagel Heyer} [24-44,1]

2020 Albert Nicholas - As It Is When It Was {Nagel Heyer} [24-44,1]
Издатель (лейбл):
Битрейт аудио:
lossless
Доп. инфо:

ормат записи/Источник записи: [TR24][OF]
Издание: Remastered
Год издания/переиздания диска: 2020
Продолжительность: 01:23:35
Наличие сканов в содержимом раздачи: Нет

Контейнер: FLAC (*.flac)
Тип рипа: tracks
Разрядность: 24/44,1
Количество каналов: 2.0

Источник (релизер): Qobuz

Лог проверки качества
foobar2000 1.4.3 / Dynamic Range Meter 1.1.1
log date: 2020-10-25 20:19:44

--------------------------------------------------------------------------------
Analyzed: Albert Nicholas / As It Is When It Was
--------------------------------------------------------------------------------

DR         Peak         RMS     Duration Track
--------------------------------------------------------------------------------
DR9       -1.00 dB   -12.68 dB      3:03 01-I'm Coming Virginia
DR7       -1.00 dB   -10.34 dB      3:47 02-Song of the Wanderer
DR8       -1.00 dB   -11.01 dB      5:46 03-Tin Roof Blues
DR8       -1.00 dB   -11.69 dB      3:47 04-Anah's Blues
DR8       -1.00 dB   -11.20 dB      4:02 05-Lulu's Back in Town
DR9       -1.00 dB   -12.02 dB      3:31 06-Basin Street Blues
DR8       -1.00 dB   -10.53 dB      2:54 07-Etta
DR7       -1.00 dB   -10.56 dB      2:59 08-Room Rent Blues
DR8       -1.00 dB   -10.16 dB      3:49 09-Royal Garden Blues
DR8       -1.00 dB   -10.86 dB      3:14 10-Rose Room
DR7       -1.00 dB    -9.56 dB      2:39 11-Lover Come Back to Me
DR7       -1.00 dB   -10.43 dB      4:06 12-Black and Blue
DR8       -1.00 dB   -12.06 dB      3:52 13-Careless Love
DR9       -1.00 dB   -11.38 dB      2:40 14-Ostrich Walk
DR9       -1.00 dB   -11.40 dB      3:19 15-Blues My Naughty Sweetie Gives to Me
DR9       -1.00 dB   -11.71 dB      4:33 16-Winin' Boy Blues
DR8       -1.00 dB   -11.28 dB      3:15 17-Digga Digga Do
DR8       -1.00 dB   -11.06 dB      3:01 18-I Found a New Baby
DR8       -1.00 dB   -11.41 dB      5:04 19-Ain't Misbehavin'
DR7       -1.00 dB   -11.05 dB      2:36 20-Rose Room II
DR9       -1.00 dB   -12.48 dB      3:00 21-I'm Coming Virginia II
DR8       -1.00 dB   -10.48 dB      2:29 22-Dippermouth Blues
DR8       -1.00 dB   -10.26 dB      3:12 23-Rose Room III
DR14      -2.10 dB   -21.59 dB      0:16 24-The Dancing Girls Come Out
DR8       -1.00 dB   -11.53 dB      2:53 25-Winin' Boy Blues II
--------------------------------------------------------------------------------

Number of tracks:  25
Official DR value: DR8

Samplerate:        44100 Hz
Channels:          2
Bits per sample:   24
Bitrate:           1479 kbps
Codec:             FLAC
================================================================================
Any questions - support@pro-jazz.com. Есть вопросы - support@pro-jazz.com
12:09
241
Нет комментариев. Ваш будет первым!