Поиск

2017 Ellery Eskelin - Sensations of Tone {Intakt} [24-44,1]

2017 Ellery Eskelin - Sensations of Tone {Intakt} [24-44,1]
Дата записи диска:
15 февраля 2016
Место записи:
Systems Two Recording Studios, Brooklyn, NY, USA
Дата издания диска:
20 января 2017
Издатель (лейбл):
Номер по каталогу:
CD 276
Носитель:
WEB
Формат:
PCM
Тип рипа:
tracks+.cue
Контейнер:
APE (*.ape)
Количество каналов:
2.0
Разрядность/ЧД:
24/44,1
Битрейт аудио:
lossless
Время звучания:
00:52:38
Наличие сканов:
web
Страна-производитель диска (релиза):
USA
Релизёр (источник):
M0p94ok
Доп. инфо:

Трио с Эллери Эскелином, Кристианом Вебером и Майклом Грин представляет необычный альбом: на Sensations of Tone нью-йоркский саксофонист, Берлинский барабанщик и швейцарский басист играют Свободную музыку, а также традиционный джаз. "Мы углубились в наши импровизации и посмотрели прямо на эту общую близость к раннему джазу", - пишет Эллери Эскелин в примечаниях к вкладышу. Трио Эскелина-Вебера-Гринера не сплавляет отдельные способы игры, оно чередуется и контрастирует. Каждый из прекрасных стандартов «Shreveport Stomp», «China Boy», «Moten Swing» и "Ain't Misbehavin’" сопровождается свободными импровизациями. Эллери Эскелин пишет: "разделение этих представлений (а не их смешение) выявило способы, с помощью которых одни и те же «тона» могут вызывать очень разные «ощущения». И в зависимости от ваших собственных субъективных взглядов, несмотря на очевидные различия, вполне могут обнаружиться неожиданные сходства." Чудесная музыка, вне всяких категорий.

Лог проверки качества
foobar2000 1.3.16 / Dynamic Range Meter 1.1.1
log date: 2019-04-02 15:52:12

--------------------------------------------------------------------------------
Analyzed: Ellery Eskelin / Sensations of Tone
--------------------------------------------------------------------------------

DR         Peak         RMS     Duration Track
--------------------------------------------------------------------------------
DR10      -0.20 dB   -14.97 dB      9:00 01-Orchard and Broom
DR9       -0.20 dB   -11.42 dB      4:06 02-Shreveport Stomp
DR11      -0.20 dB   -15.73 dB      7:31 03-Cornelia Street
DR7       -0.20 dB   -10.68 dB      4:12 04-China Boy
DR13      -0.20 dB   -18.12 dB      8:01 05-Ditmas Avenue
DR13      -0.20 dB   -16.29 dB      5:36 06-Moten Swing
DR14      -0.20 dB   -17.94 dB      7:47 07-Dumbo
DR12      -0.20 dB   -15.09 dB      6:30 08-Ain't Misbehavin'
--------------------------------------------------------------------------------

Number of tracks:  8
Official DR value: DR11

Samplerate:        44100 Hz
Channels:          2
Bits per sample:   24
Bitrate:           1428 kbps
Codec:             FLAC
================================================================================
No seeders - write personal message to M0p94ok. Any questions - support@pro-jazz.com.
Нет сидеров - пишите в личку M0p94ok. Есть вопросы - support@pro-jazz.com
17:39
243
Нет комментариев. Ваш будет первым!