Поиск

2020 Keith Jarrett - Budapest Concert {ECM} [24-48]

2020 Keith Jarrett - Budapest Concert {ECM} [24-48]
Дата записи диска:
3 июля 2016
Место записи:
The Palace of the Arts, Béla Bartok Concert Hall, Budapest, Hungary
Дата издания диска:
30 октября 2020
Издатель (лейбл):
Номер по каталогу:
UCCE-1185/6
Битрейт аудио:
lossless
Доп. инфо:

Формат записи/Источник записи: [TR24][OF]
Наличие водяных знаков: Нет
Год издания/переиздания диска: 2020
Продолжительность: 01:27:43
Наличие сканов в содержимом раздачи: Буклет PDF

Контейнер: FLAC (*.flac)
Тип рипа: tracks
Разрядность: 24/48
Формат: PCM
Количество каналов: 2.0

Источник (релизер): qobuz

 

Лог проверки качества
foobar2000 1.6.1 / Dynamic Range Meter 1.1.1
log date: 2020-11-01 00:28:03

--------------------------------------------------------------------------------
Analyzed: Keith Jarrett / Budapest Concert
--------------------------------------------------------------------------------

DR         Peak         RMS     Duration Track
--------------------------------------------------------------------------------
DR14      -1.23 dB   -17.62 dB     14:29 01-Part I
DR15      -1.39 dB   -22.40 dB      6:43 02-Part II
DR12      -1.46 dB   -18.81 dB      7:55 03-Part III
DR13      -2.13 dB   -18.84 dB      7:12 04-Part IV
DR14      -2.09 dB   -21.18 dB      4:53 05-Part V
DR13      -1.41 dB   -16.92 dB      3:37 06-Part VI
DR12      -0.51 dB   -16.93 dB      5:24 07-Part VII
DR13      -1.34 dB   -21.30 dB      5:18 08-Part VIII
DR13      -0.50 dB   -16.12 dB      2:27 09-Part IX
DR13      -0.69 dB   -16.77 dB      8:23 10-Part X
DR14      -0.63 dB   -20.24 dB      5:29 11-Part XI
DR12      -0.51 dB   -15.55 dB      3:47 12-Part XII - Blues
DR12      -0.50 dB   -16.82 dB      7:37 13-It's a Lonesome Old Town
DR14      -0.50 dB   -20.64 dB      4:29 14-Answer Me, My Love
--------------------------------------------------------------------------------

Number of tracks:  14
Official DR value: DR13

Samplerate:        48000 Hz
Channels:          2
Bits per sample:   24
Bitrate:           1158 kbps
Codec:             FLAC
================================================================================
No seeders - write personal message to M0p94ok. Any questions - support@pro-jazz.com.
Нет сидеров - пишите в личку M0p94ok. Есть вопросы - support@pro-jazz.com
14:07
214
Нет комментариев. Ваш будет первым!