Поиск

1973 George Benson - Body Talk (2018) {CTI, Columbia, Vocallion} [DST64]

1973 George Benson - Body Talk (2018) {CTI, Columbia, Vocallion} [DST64]
Дата записи диска:
17 июля - 18 июля 1973
Место записи:
Van Gelder Recording Studio, Englewood Cliffs, New Jersey, USA
Дата издания диска:
23 августа 1973
Дата переиздания диска:
1 сентября 2018
Издатель (лейбл):
Номер по каталогу:
CDSML 8548
Битрейт аудио:
lossless

Треклист:

1. Dance  08:21
2. When Love Has Grown  05:02
3. Plum  05:11
4. Body Talk  08:20
5. Top of the World  09:44
 

Доп. инфо:

Формат записи/Источник записи: [SACD-R][OF]
Наличие водяных знаков: Нет
Год издания/переиздания диска: 1973/2018
Продолжительность: 00:36:46
Наличие сканов в содержимом раздачи: Да (сканы)

Контейнер: ISO (*.iso)
Тип рипа: image
Разрядность: 64(2,8 MHz/1 Bit)
Формат: DST64
Количество каналов: 5.1 (4.0), 2.0

Источник (релизер): KingCrim (PS³SACD)
https://www.duttonvocalion.co.uk/proddetail.php?prod=CDSML8548

Лог проверки качества
foobar2000 1.3.13 / Замер динамического диапазона (DR) 1.1.1
Дата отчёта:  2020-05-12 16:06:00

--------------------------------------------------------------------------------
Анализ:   George Benson / Body Talk
--------------------------------------------------------------------------------

DR         Пики         RMS           Продолжительность трека
--------------------------------------------------------------------------------
DR8       -7.45 дБ   -24.70 дБ      8:24 01-Dance
DR8       -7.58 дБ   -24.49 дБ      5:03 02-When Love Has Grown
DR8       -7.38 дБ   -24.72 дБ      5:12 03-Plum
DR8       -7.17 дБ   -24.52 дБ      8:22 04-Body Talk
DR9       -7.80 дБ   -26.70 дБ      9:44 05-Top of the World
--------------------------------------------------------------------------------

Количество треков: 5
Реальные значения DR: DR8

Частота:   2822400 Гц / Частота PCM: 88200 Гц
Каналов:   6
Разрядность:   24
Битрейт:   16934 кбит/с
Кодек:   DST64
================================================================================

--------------------------------------------------------------------------------
Анализ:   George Benson / Body Talk
--------------------------------------------------------------------------------

DR         Пики         RMS           Продолжительность трека
--------------------------------------------------------------------------------
DR14      -5.97 дБ   -22.31 дБ      8:24 01-Dance
DR13      -6.19 дБ   -22.68 дБ      5:03 02-When Love Has Grown
DR13      -6.53 дБ   -22.38 дБ      5:12 03-Plum
DR14      -6.02 дБ   -22.20 дБ      8:22 04-Body Talk
DR14      -6.01 дБ   -24.26 дБ      9:44 05-Top of the World
--------------------------------------------------------------------------------

Количество треков: 5
Реальные значения DR: DR14

Частота:   2822400 Гц / Частота PCM: 88200 Гц
Каналов:   2
Разрядность:   24
Битрейт:   5645 кбит/с
Кодек:   DST64
================================================================================
Приватный:
Нет (DHT включён)
Размер:
1.62 Гб (1,734,421,058 байт) » файлов: 9
Участники:
0 раздают, 1 качают (1 участников всего)
Внешние участники:
10 раздают, 3 качают (13 участников всего) [ Обновить ]
Скорость:
1.74 Мб/c 0/c
No seeders - write personal message to M0p94ok. Нет сидеров - пишите в личку M0p94ok.
10:34
545
Нет комментариев. Ваш будет первым!