Поиск

2019 Frank Wess - Flute Hook {Nagel Heyer} [24-44,1]

2019 Frank Wess - Flute Hook {Nagel Heyer} [24-44,1]
Стили:
Издатель (лейбл):
Битрейт аудио:
lossless

Треклист:

01 - You Are Too Beautiful 04:26
02 - Sweet and Lovely 04:49
03 - Lady Luck 06:23
04 - Liz 03:35
05 - Lazy Sal 06:09
06 - Shadowland 04:09
07 - Sandy 03:55
08 - Buzz-At 06:35
09 - Ghana 05:34
10 - I'm Afraid the Masquerade Is Over 03:46
11 - Monday Stroll 04:20
12 - Ray-El 08:06
13 - Midget Rod 05:46

Доп. инфо:

Формат записи/Источник записи: [TR24][OF]
Издание: Remastered
Год издания/переиздания диска: 2019
Продолжительность: 01:07:33
Наличие сканов в содержимом раздачи: Нет

Контейнер: FLAC (*.flac)
Тип рипа: tracks
Разрядность: 24/44,1
Количество каналов: 2.0

Источник (релизер): Qobuz

Лог проверки качества
foobar2000 1.4.3 / Dynamic Range Meter 1.1.1
log date: 2020-10-25 15:47:00

--------------------------------------------------------------------------------
Analyzed: Frank Wess / Flute Hook
--------------------------------------------------------------------------------

DR         Peak         RMS     Duration Track
--------------------------------------------------------------------------------
DR10      -1.00 dB   -14.38 dB      4:26 01-You Are Too Beautiful
DR12      -1.00 dB   -16.02 dB      4:49 02-Sweet and Lovely
DR9       -1.00 dB   -13.34 dB      6:23 03-Lady Luck
DR10      -1.00 dB   -13.70 dB      3:35 04-Liz
DR9       -1.00 dB   -11.03 dB      6:10 05-Lazy Sal
DR10      -1.00 dB   -12.91 dB      4:10 06-Shadowland
DR11      -1.00 dB   -15.62 dB      3:56 07-Sandy
DR10      -1.00 dB   -13.48 dB      6:36 08-Buzz-At
DR10      -1.00 dB   -13.44 dB      5:34 09-Ghana
DR12      -1.00 dB   -17.29 dB      3:46 10-I'm Afraid the Masquerade Is Over
DR10      -1.00 dB   -13.61 dB      4:21 11-Monday Stroll
DR9       -1.00 dB   -12.80 dB      8:06 12-Ray-El
DR10      -1.00 dB   -14.68 dB      5:47 13-Midget Rod
--------------------------------------------------------------------------------

Number of tracks:  13
Official DR value: DR10

Samplerate:        44100 Hz
Channels:          2
Bits per sample:   24
Bitrate:           1695 kbps
Codec:             FLAC
================================================================================
Приватный:
Нет (DHT включён)
Размер:
769.19 Мб (806,556,337 байт) » файлов: 18
Участники:
0 раздают, 0 качают (0 участников всего)
Внешние участники:
5 раздают, 2 качают (7 участников всего) [ Обновить ]
No seeders - write personal message to M0p94ok. Any questions - support@pro-jazz.com.
Нет сидеров - пишите в личку M0p94ok. Есть вопросы - support@pro-jazz.com
00:12
218
Нет комментариев. Ваш будет первым!