Поиск

2006 John Hicks, Buster Williams, Louis Hayes - On The Wings of an Eagle {Chesky} [DST64]

2006 John Hicks, Buster Williams, Louis Hayes - On The Wings of an Eagle {Chesky} [DST64]
Стили:
Дата записи диска:
10 марта 2006
Место записи:
St. Peter's Episcopal Church, New York City, NY, USA
Дата издания диска:
27 февраля 2007
Издатель (лейбл):
Битрейт аудио:
lossless
Время звучания:
01:01:39

Треклист:

1. Minority  06:56
2. Fly Little Bird Fly  06:46
3. Strivers Jewels  08:08
4. Balues-Bolivar-Balues-Are  06:09
5. Cheese Cake  08:17
6. Dedicated to You  07:14
7. Minor Mishap  05:23
8. Christina  05:14
9. As Birds Fly  07:32

Доп. инфо:

Формат записи/Источник записи: [SACD-R][OF]
Наличие водяных знаков: Нет
Год издания/переиздания диска: 2006
Продолжительность: 01:01:00
Наличие сканов в содержимом раздачи: Да (сканы)

Контейнер: ISO (*.iso)
Тип рипа: image
Разрядность: 64(2,8 MHz/1 Bit)
Формат: DST64
Количество каналов: 2.0, 5.1

Источник (релизер): audioguy_net
https://www.discogs.com/John-Hicks-Buster-Williams-Louis-Hayes-On-The-Wings-Of-An.../release/1487411

 

Лог проверки качества
foobar2000 1.5 / Dynamic Range Meter 1.1.1
log date: 2019-12-26 10:13:26

--------------------------------------------------------------------------------
Analyzed: John Hicks, Buster Williams, Louis Hayes / On The Wings Of An Eagle
--------------------------------------------------------------------------------

DR         Peak         RMS     Duration Track
--------------------------------------------------------------------------------
DR14      -1.06 dB   -24.78 dB      6:57 01-Minority
DR12      -0.73 dB   -21.86 dB      6:46 02-Fly Little Bird Fly
DR10      -7.88 dB   -28.74 dB      8:08 03-Strivers Jewels
DR13      -0.78 dB   -24.33 dB      6:10 04-Balues-Bolivar-Balues-Are
DR13      -0.24 dB   -23.12 dB      8:18 05-Cheese Cake
DR10      -6.14 dB   -27.61 dB      7:14 06-Dedicated To You
DR12      -1.11 dB   -23.63 dB      5:24 07-Minor Mishap
DR9       -9.97 dB   -29.19 dB      5:15 08-Christina
DR14      -1.09 dB   -24.87 dB      7:31 09-As Birds Fly (Walton’s Mountain)
--------------------------------------------------------------------------------

Number of tracks:  9
Official DR value: DR12

Samplerate:        2822400 Hz / PCM Samplerate: 176400 Hz
Channels:          5
Bits per sample:   1
Bitrate:           14112 kbps
Codec:             DST64
================================================================================

--------------------------------------------------------------------------------
Analyzed: John Hicks, Buster Williams, Louis Hayes / On The Wings Of An Eagle
--------------------------------------------------------------------------------

DR         Peak         RMS     Duration Track
--------------------------------------------------------------------------------
DR17      -1.06 dB   -21.15 dB      6:57 01-Minority
DR15      -0.73 dB   -18.25 dB      6:46 02-Fly Little Bird Fly
DR13      -7.88 dB   -25.07 dB      8:08 03-Strivers Jewels
DR16      -0.78 dB   -20.72 dB      6:10 04-Balues-Bolivar-Balues-Are
DR17      -0.24 dB   -19.49 dB      8:18 05-Cheese Cake
DR12      -6.14 dB   -23.88 dB      7:14 06-Dedicated To You
DR16      -1.11 dB   -20.04 dB      5:24 07-Minor Mishap
DR11      -9.97 dB   -25.48 dB      5:15 08-Christina
DR17      -1.09 dB   -21.23 dB      7:31 09-As Birds Fly (Walton’s Mountain)
--------------------------------------------------------------------------------

Number of tracks:  9
Official DR value: DR15

Samplerate:        2822400 Hz / PCM Samplerate: 176400 Hz
Channels:          2
Bits per sample:   1
Bitrate:           5645 kbps
Codec:             DST64
================================================================================
Приватный:
Нет (DHT включён)
Размер:
2.71 Гб (2,909,146,902 байт) » файлов: 7
Участники:
0 раздают, 0 качают (0 участников всего)
Внешние участники:
9 раздают, 3 качают (12 участников всего) [ Обновить ]
No seeders - write personal message to M0p94ok. Any questions - support@pro-jazz.com.
Нет сидеров - пишите в личку M0p94ok. Есть вопросы - support@pro-jazz.com
23:22
219
Нет комментариев. Ваш будет первым!