Поиск

2006 Christian McBride, Javon Jackson, Jimmy Cobb, Cedar Walton - New York Time {Chesky} [DST64]

2006 Christian McBride, Javon Jackson, Jimmy Cobb, Cedar Walton - New York Time {Chesky} [DST64]
Стили:
Дата записи диска:
31 января 2006
Место записи:
St Peter’s Episcopal Church, New York City, NY, USA
Дата издания диска:
26 сентября 2006
Издатель (лейбл):
Номер по каталогу:
SACD314
Битрейт аудио:
lossless
Треклист:

01. Newest Blues 05:43
02. Sixth Ave 06:03
03. My Shining Hour 05:27
04. Notes in Three 05:30
05. In the Kitchen 06:44
06. Naima 06:18
07. Grove 05:30
08. Whisper Not 05:38
09. Diane 06:04
10. Mode for Joe 06:07

Доп. инфо:

Формат записи/Источник записи: [SACD-R][OF]
Наличие водяных знаков: Нет
Год издания/переиздания диска: 2006
Продолжительность: 59:04
Наличие сканов в содержимом раздачи: Да (сканы)

Контейнер: ISO (*.iso)
Тип рипа: image
Разрядность: 64(2,8 MHz/1 Bit)
Формат: DST64
Количество каналов: 2.0 & 5.0

Источник (релизер): https://www.discogs.com/Christian-McBride-Javon-Jackson-Jimmy-Cobb-Cedar-Walton-N.../release/4314706

Лог проверки качества
foobar2000 1.4 / Dynamic Range Meter 1.1.1
log date: 2019-12-22 01:54:04

--------------------------------------------------------------------------------
Analyzed: Cedar Walton/Javon Jackson / New York Time
--------------------------------------------------------------------------------

DR         Peak         RMS     Duration Track
--------------------------------------------------------------------------------
DR12       0.00 dB   -23.69 dB      5:43 01-Newest Blues
DR12      -0.11 dB   -24.46 dB      6:03 02-6th Ave
DR12       0.00 dB   -22.49 dB      5:27 03-My Shining Hour
DR11      -2.05 dB   -26.17 dB      5:30 04-Notes in Three
DR11       0.00 dB   -21.37 dB      6:44 05-In the Kitchen
DR11      -3.83 dB   -25.69 dB      6:18 06-Naima
DR13      -0.06 dB   -23.70 dB      5:30 07-Grove
DR12      -0.05 dB   -24.53 dB      5:38 08-Whisper Not
DR12      -3.24 dB   -27.42 dB      6:04 09-Diane
DR12      -0.07 dB   -24.46 dB      6:07 10-Mode
--------------------------------------------------------------------------------

Number of tracks:  10
Official DR value: DR12

Samplerate:        2822400 Hz / PCM Samplerate: 88200 Hz
Channels:          5
Bits per sample:   1
Bitrate:           14112 kbps
Codec:             DST64
================================================================================

--------------------------------------------------------------------------------
Analyzed: Cedar Walton/Javon Jackson / New York Time
--------------------------------------------------------------------------------

DR         Peak         RMS     Duration Track
--------------------------------------------------------------------------------
DR16       0.00 dB   -19.95 dB      5:43 01-Newest Blues
DR16      -0.11 dB   -20.70 dB      6:03 02-6th Ave
DR16       0.00 dB   -18.75 dB      5:27 03-My Shining Hour
DR15      -2.05 dB   -22.42 dB      5:30 04-Notes in Three
DR15       0.00 dB   -17.65 dB      6:44 05-In the Kitchen
DR14      -3.83 dB   -21.92 dB      6:18 06-Naima
DR17      -0.06 dB   -19.97 dB      5:30 07-Grove
DR16      -0.05 dB   -20.78 dB      5:38 08-Whisper Not
DR14      -3.24 dB   -23.68 dB      6:04 09-Diane
DR16      -0.07 dB   -20.69 dB      6:07 10-Mode
--------------------------------------------------------------------------------

Number of tracks:  10
Official DR value: DR15

Samplerate:        2822400 Hz / PCM Samplerate: 88200 Hz
Channels:          2
Bits per sample:   1
Bitrate:           5645 kbps
Codec:             DST64
================================================================================
Приватный:
Нет (DHT включён)
Размер:
2.61 Гб (2,802,097,359 байт) » файлов: 8
Участники:
0 раздают, 0 качают (0 участников всего)
Внешние участники:
7 раздают, 2 качают (9 участников всего) [ Обновить ]
No seeders - write personal message to M0p94ok. Нет сидеров - пишите в личку M0p94ok.
18:14
187
Нет комментариев. Ваш будет первым!