Вы используете незарегистрированную версию компонента "Вкладки"!

Поиск

2019 Erik Soderlind - Plays McCartney {Diesel} [24-96]

2019 Erik Soderlind - Plays McCartney {Diesel} [24-96]
Дата издания диска:
29 марта 2019
Носитель:
WEB
Формат:
PCM
Тип рипа:
tracks+.cue
Контейнер:
APE (*.ape)
Количество каналов:
2.0
Разрядность/ЧД:
24/96
Битрейт аудио:
lossless
Время звучания:
00:28:45
Наличие сканов:
web
Релизёр (источник):
M0p94ok
Лог проверки качества
foobar2000 1.6.2 / Dynamic Range Meter 1.1.1
log date: 2020-12-17 13:27:20

--------------------------------------------------------------------------------
Analyzed: Erik Soderlind / Plays McCartney
--------------------------------------------------------------------------------

DR         Peak         RMS     Duration Track
--------------------------------------------------------------------------------
DR11      -1.92 dB   -16.33 dB      2:00 01-Yesterday
DR13      -1.00 dB   -17.42 dB      2:25 02-Penny Lane
DR13      -1.00 dB   -17.49 dB      2:43 03-Let It Be
DR13      -1.67 dB   -17.45 dB      2:20 04-Michelle
DR13      -1.00 dB   -17.52 dB      2:03 05-Eleanor Rigby
DR11      -4.49 dB   -18.93 dB      1:51 06-Here, There and Everywhere
DR13      -2.46 dB   -19.21 dB      2:54 07-And I Love Her
DR13      -1.00 dB   -17.20 dB      1:46 08-Fool on the Hill
DR13      -1.47 dB   -17.69 dB      2:44 09-Golden Slumbers
DR11      -2.21 dB   -16.85 dB      2:55 10-Junk
DR12      -2.16 dB   -17.15 dB      2:31 11-Mother Nature's Son
DR11      -1.61 dB   -16.06 dB      2:38 12-The Long and Winding Road
--------------------------------------------------------------------------------

Number of tracks:  12
Official DR value: DR12

Samplerate:        96000 Hz
Channels:          2
Bits per sample:   24
Bitrate:           2565 kbps
Codec:             FLAC
================================================================================
Any questions - support@pro-jazz.com. Есть вопросы - support@pro-jazz.com
15:07
233
Нет комментариев. Ваш будет первым!