Поиск

2020 Mary Coughlan - Life Stories {Hail Mary} [24-44,1]

2020 Mary Coughlan - Life Stories {Hail Mary} [24-44,1]
Стили:
Дата издания диска:
4 сентября 2020
Битрейт аудио:
lossless

Треклист:

01. Family Life  04:46
02. Two Breaking into One  03:12
03. High Heel Boots  03:28
04. Forward Bound  03:04
05. Elbow Deep  04:17
06. I Dare You to Love Me  03:53
07. Little Dance  00:24
08. Do It Again  02:29
09. Why Do All the Bad Guys Taste so Good  03:47
10. Safe and Sound  04:23
11. No Jerico  03:04
12. Twelve Steps Forward and Ten Steps Back  03:37

Доп. инфо:

Формат записи/Источник записи: [TR24][OF]
Год издания/переиздания диска: 2020
Издатель (лейбл): Hail Mary Records
Продолжительность: 00:40:24
Наличие сканов в содержимом раздачи: Нет

Контейнер: FLAC (*.flac)
Тип рипа: tracks
Разрядность: 24/44,1
Количество каналов: 2.0

Источник (релизер): HIGHRESAUDIO

Лог проверки качества
foobar2000 1.3.16 / Dynamic Range Meter 1.1.1
log date: 2020-09-05 04:59:22

--------------------------------------------------------------------------------
Analyzed: Mary Coughlan / Life Stories
--------------------------------------------------------------------------------

DR         Peak         RMS     Duration Track
--------------------------------------------------------------------------------
DR8       -1.39 dB   -12.77 dB      4:47 01-Family Life
DR5       -0.10 dB    -6.53 dB      3:13 02-Two Breaking into One
DR5       -0.10 dB    -6.64 dB      3:28 03-High Heel Boots
DR5       -0.10 dB    -6.79 dB      3:04 04-Forward Bound
DR8       -0.03 dB   -11.68 dB      4:18 05-Elbow Deep
DR5       -0.10 dB    -6.64 dB      3:54 06-I Dare You to Love Me
DR12      -0.10 dB   -13.22 dB      0:25 07-Little Dance
DR6       -0.10 dB    -7.24 dB      2:30 08-Do It Again
DR5       -0.10 dB    -7.57 dB      3:47 09-Why Do All the Bad Guys Taste so Good
DR9       -0.03 dB   -11.77 dB      4:24 10-Safe and Sound
DR8       -0.10 dB   -10.39 dB      3:05 11-No Jerico
DR5       -0.10 dB    -7.63 dB      3:37 12-Twelve Steps Forward and Ten Steps Back
--------------------------------------------------------------------------------

Number of tracks:  12
Official DR value: DR7

Samplerate:        44100 Hz
Channels:          2
Bits per sample:   24
Bitrate:           1616 kbps
Codec:             FLAC
================================================================================
Приватный:
Нет (DHT включён)
Размер:
453.42 Мб (475,449,424 байт) » файлов: 17
Участники:
0 раздают, 0 качают (0 участников всего)
Внешние участники:
2 раздают, 1 качают (3 участников всего) [ Обновить ]
No seeders - write personal message to M0p94ok. Any questions - support@pro-jazz.com.
Нет сидеров - пишите в личку M0p94ok. Есть вопросы - support@pro-jazz.com
17:19
155
Нет комментариев. Ваш будет первым!