Поиск

2011 Miles Davis - Bitches Brew Live {Legacy 88697 81485 2} [CD]

2011 Miles Davis - Bitches Brew Live {Legacy 88697 81485 2} [CD]
Битрейт аудио:
lossless

Треклист:

01. Miles Runs The Voodoo Down (10:27)
02. Sanctuary (03:58)
03. Itҳ About That Time/The Theme (09:40)
04. Directions (07:31)
05. Bitches Brew (10:09)
06. Itҳ About That Time (00:00)
07. Sanctuary (01:10)
08. Spanish Key (08:15)
09. The Theme (02:10)

#1-3: recorded live at The Newport Jazz Festival, Newport, RI, July 5, 1969
#4-9: recorded live at the Isle of Wight on August 29, 1970
Mastered at Battery Studios, New York City

Лог создания рипа
Exact Audio Copy V1.3 from 2. September 2016

EAC extraction logfile from 18. January 2019, 19:45

Miles Davis / Bitches Brew Live

Used drive  : PLDS    DVD+-RW DU-8A5LH   Adapter: 1  ID: 0

Read mode               : Secure
Utilize accurate stream : Yes
Defeat audio cache      : Yes
Make use of C2 pointers : No

Read offset correction                      : 6
Overread into Lead-In and Lead-Out          : No
Fill up missing offset samples with silence : Yes
Delete leading and trailing silent blocks   : No
Null samples used in CRC calculations       : Yes
Used interface                              : Native Win32 interface for Win NT & 2000
Gap handling                                : Appended to previous track

Used output format              : User Defined Encoder
Selected bitrate                : 1024 kBit/s
Quality                         : High
Add ID3 tag                     : No
Command line compressor         : C:/Program Files (x86)/Exact Audio Copy/Flac/flac.exe
Additional command line options : -8 -e -p -V -T "ARTIST=%artist%" -T "TITLE=%title%" -T "ALBUM=%albumtitle%" -T "DATE=%year%" -T "TRACKNUMBER=%tracknr%" -T "GENRE=%genre%" -T "PERFORMER=%albuminterpret%" -T "COMPOSER=%composer%" %haslyrics%--tag-from-file=LYRICS="%lyricsfile%"%haslyrics% -T "ALBUMARTIST=%albumartist%" -T "DISCNUMBER=%cdnumber%" -T "TOTALDISCS=%totalcds%" -T "TOTALTRACKS=%numtracks%" -T "COMMENT=%comment%" %source% -o %dest%

TOC of the extracted CD

     Track |   Start  |  Length  | Start sector | End sector
    ---------------------------------------------------------
        1  |  0:00.00 | 10:27.21 |         0    |    47045
        2  | 10:27.21 |  3:58.50 |     47046    |    64945
        3  | 14:25.71 |  9:44.53 |     64946    |   108798
        4  | 24:10.49 |  7:31.12 |    108799    |   142635
        5  | 31:41.61 | 10:09.28 |    142636    |   188338
        6  | 41:51.14 |  6:17.06 |    188339    |   216619
        7  | 48:08.20 |  1:10.35 |    216620    |   221904
        8  | 49:18.55 |  8:15.02 |    221905    |   259031
        9  | 57:33.57 |  2:10.68 |    259032    |   268849

Track  1

     Filename C:\Users\onean\Desktop\Miles Davis - Bitches Brew Live (2011) [flac[] {88697 81485 2}\01 - Miles Runs The Voodoo Down.wav

     Pre-gap length  0:00:02.00

     Peak level 97.9 %
     Extraction speed 3.5 X
     Track quality 100.0 %
     Test CRC F7B8CB8F
     Copy CRC F7B8CB8F
     Accurately ripped (confidence 78)  [36B0D134]  (AR v2)
     Copy OK

Track  2

     Filename C:\Users\onean\Desktop\Miles Davis - Bitches Brew Live (2011) [flac[] {88697 81485 2}\02 - Sanctuary.wav

     Peak level 94.4 %
     Extraction speed 3.6 X
     Track quality 100.0 %
     Test CRC B60925F3
     Copy CRC B60925F3
     Accurately ripped (confidence 78)  [D615E9E3]  (AR v2)
     Copy OK

Track  3

     Filename C:\Users\onean\Desktop\Miles Davis - Bitches Brew Live (2011) [flac[] {88697 81485 2}\03 - It’s About That Time-The Theme.wav

     Peak level 98.9 %
     Extraction speed 4.4 X
     Track quality 100.0 %
     Test CRC 335BAFE4
     Copy CRC 335BAFE4
     Accurately ripped (confidence 79)  [6725EA38]  (AR v2)
     Copy OK

Track  4

     Filename C:\Users\onean\Desktop\Miles Davis - Bitches Brew Live (2011) [flac[] {88697 81485 2}\04 - Directions.wav

     Pre-gap length  0:00:03.88

     Peak level 85.9 %
     Extraction speed 4.3 X
     Track quality 99.9 %
     Test CRC 5A443AA5
     Copy CRC 5A443AA5
     Accurately ripped (confidence 79)  [92723BE9]  (AR v2)
     Copy OK

Track  5

     Filename C:\Users\onean\Desktop\Miles Davis - Bitches Brew Live (2011) [flac[] {88697 81485 2}\05 - Bitches Brew.wav

     Peak level 85.9 %
     Extraction speed 5.3 X
     Track quality 100.0 %
     Test CRC 467DE908
     Copy CRC 467DE908
     Accurately ripped (confidence 78)  [C55C5D8C]  (AR v2)
     Copy OK

Track  6

     Filename C:\Users\onean\Desktop\Miles Davis - Bitches Brew Live (2011) [flac[] {88697 81485 2}\06 - It’s About That Time.wav

     Peak level 85.9 %
     Extraction speed 5.4 X
     Track quality 100.0 %
     Test CRC 260D8ED5
     Copy CRC 260D8ED5
     Accurately ripped (confidence 79)  [115F9EAD]  (AR v2)
     Copy OK

Track  7

     Filename C:\Users\onean\Desktop\Miles Davis - Bitches Brew Live (2011) [flac[] {88697 81485 2}\07 - Sanctuary.wav

     Peak level 85.7 %
     Extraction speed 4.0 X
     Track quality 100.0 %
     Test CRC 200BA930
     Copy CRC 200BA930
     Accurately ripped (confidence 79)  [24435B79]  (AR v2)
     Copy OK

Track  8

     Filename C:\Users\onean\Desktop\Miles Davis - Bitches Brew Live (2011) [flac[] {88697 81485 2}\08 - Spanish Key.wav

     Peak level 85.9 %
     Extraction speed 5.4 X
     Track quality 99.9 %
     Test CRC E780C1DA
     Copy CRC E780C1DA
     Accurately ripped (confidence 79)  [D0A44AD0]  (AR v2)
     Copy OK

Track  9

     Filename C:\Users\onean\Desktop\Miles Davis - Bitches Brew Live (2011) [flac[] {88697 81485 2}\09 - The Theme.wav

     Peak level 85.8 %
     Extraction speed 5.0 X
     Track quality 100.0 %
     Test CRC A859895D
     Copy CRC A859895D
     Accurately ripped (confidence 77)  [CE1899EC]  (AR v2)
     Copy OK

All tracks accurately ripped

No errors occurred

End of status report

---- CUETools DB Plugin V2.1.6

[CTDB TOCID: 9hcEYcK0fr207zRtMnLP1m2HLc4-] found
Submit result: 9hcEYcK0fr207zRtMnLP1m2HLc4- has been confirmed
Track | CTDB Status
  1   | (240/241) Accurately ripped
  2   | (237/241) Accurately ripped
  3   | (239/241) Accurately ripped
  4   | (239/241) Accurately ripped
  5   | (239/241) Accurately ripped
  6   | (240/241) Accurately ripped
  7   | (239/241) Accurately ripped
  8   | (240/241) Accurately ripped
  9   | (235/241) Accurately ripped, or (3/241) differs in 5140 samples @02:10:47-02:10:53

==== Log checksum 13DA81971D1F71589B6889A5680D9E9D75EE80E17820F3228DF4E9659E39CF4D ====
Содержание индексной карты (.CUE)
REM GENRE Jazz
REM DATE 1969
REM DISCID 810E0009
REM COMMENT "ExactAudioCopy v1.3"
PERFORMER "Miles Davis"
TITLE "Bitches Brew Live"
REM COMPOSER ""
FILE "01 - Miles Runs The Voodoo Down.wav" WAVE
  TRACK 01 AUDIO
    TITLE "Miles Runs The Voodoo Down"
    PERFORMER "Miles Davis"
    REM COMPOSER ""
    ISRC USSM11005221
    INDEX 01 00:00:00
FILE "02 - Sanctuary.wav" WAVE
  TRACK 02 AUDIO
    TITLE "Sanctuary"
    PERFORMER "Miles Davis"
    REM COMPOSER ""
    ISRC USSM11005222
    INDEX 01 00:00:00
FILE "03 - It’s About That Time-The Theme.wav" WAVE
  TRACK 03 AUDIO
    TITLE "It’s About That Time/The Theme"
    PERFORMER "Miles Davis"
    REM COMPOSER ""
    ISRC USSM11005223
    INDEX 01 00:00:00
  TRACK 04 AUDIO
    TITLE "Directions"
    PERFORMER "Miles Davis"
    REM COMPOSER ""
    ISRC USSM10903562
    INDEX 00 09:40:62
FILE "04 - Directions.wav" WAVE
    INDEX 01 00:00:00
FILE "05 - Bitches Brew.wav" WAVE
  TRACK 05 AUDIO
    TITLE "Bitches Brew"
    PERFORMER "Miles Davis"
    REM COMPOSER ""
    ISRC USSM10903563
    INDEX 01 00:00:00
FILE "06 - It’s About That Time.wav" WAVE
  TRACK 06 AUDIO
    TITLE "It’s About That Time"
    PERFORMER "Miles Davis"
    REM COMPOSER ""
    ISRC USSM10903565
    INDEX 01 00:00:00
FILE "07 - Sanctuary.wav" WAVE
  TRACK 07 AUDIO
    TITLE "Sanctuary"
    PERFORMER "Miles Davis"
    REM COMPOSER ""
    ISRC USSM10903566
    INDEX 01 00:00:00
FILE "08 - Spanish Key.wav" WAVE
  TRACK 08 AUDIO
    TITLE "Spanish Key"
    PERFORMER "Miles Davis"
    REM COMPOSER ""
    ISRC USSM10903568
    INDEX 01 00:00:00
FILE "09 - The Theme.wav" WAVE
  TRACK 09 AUDIO
    TITLE "The Theme"
    PERFORMER "Miles Davis"
    REM COMPOSER ""
    ISRC USSM10904798
    INDEX 01 00:00:00
Приватный:
Нет (DHT включён)
Размер:
377.67 Мб (396,018,014 байт) » файлов: 13
Участники:
7 раздают, 0 качают (7 участников всего)
Внешние участники:
7 раздают, 2 качают (9 участников всего) [ Обновить ]
Нет сидеров - пишите личное сообщение M0p94ok. Не нравятся торренты? Участники группы Pro-jazz Club могут заказать прямую ссылку на скачивание из облака.
No seeders - write a personal message to M0p94ok. Don't like torrents? Members of Pro-jazz Club group can order a direct download link from the cloud.
13:07
41
Нет комментариев. Ваш будет первым!