Поиск

1986-2015 Enya - Collection (Japan) [8CD]

1986-2015 Enya - Collection (Japan) [8CD]
Битрейт аудио:
lossless
Треклист:

Жанр: New Age
Страна-производитель дисков: picJapan
Носитель: CD
Год издания дисков: 1986-2015
Аудио кодек: FLAC (*.flac)
Тип рипа: image+.cue
Битрейт аудио: lossless
Источник (релизер): Рипы с личных оригиналов bruk67
Наличие сканов в содержимом раздачи: 600 dpi, JPG

 
1986 - Enya

Страна-производитель диска: picJapan
Год издания диска: 1989
Издатель (лейбл): Jimco Records
Номер по каталогу: JIM 0001
Продолжительность: 39:27
Треклист▼

01. The Celts
02. Aldebaran (Dedicated To Ridley Scott)
03. I Want Tomorrow
04. March Of The Celts
05. Deireadh An Tuath
06. The Sun In The Stream
07. To Go Beyond (I)
08. Fairytale
09. Epona
10. Triad (St. Patrick / Cu Chulainn / Oisin)
11. Portrait
12. Boadicea
13. Bard Dance
14. Dan Y Dwr
15. To Go Beyond (II)

pic
pic

 
Лог создания рипа
Exact Audio Copy V1.3 from 2. September 2016
EAC extraction logfile from 19. January 2019, 16:32
Enya / Enya
Used drive  : PLEXTOR DVDR   PX-760A   Adapter: 1  ID: 0
Read mode               : Secure
Utilize accurate stream : Yes
Defeat audio cache      : Yes
Make use of C2 pointers : No
Read offset correction                      : 30
Overread into Lead-In and Lead-Out          : No
Fill up missing offset samples with silence : Yes
Delete leading and trailing silent blocks   : No
Null samples used in CRC calculations       : Yes
Used interface                              : Native Win32 interface for Win NT & 2000
Used output format : Internal WAV Routines
Sample format      : 44.100 Hz; 16 Bit; Stereo
TOC of the extracted CD
     Track |   Start  |  Length  | Start sector | End sector
    ---------------------------------------------------------
        1  |  0:00.00 |  2:57.07 |         0    |    13281
        2  |  2:57.07 |  3:05.48 |     13282    |    27204
        3  |  6:02.55 |  4:03.62 |     27205    |    45491
        4  | 10:06.42 |  3:16.33 |     45492    |    60224
        5  | 13:23.00 |  1:43.45 |     60225    |    67994
        6  | 15:06.45 |  2:56.45 |     67995    |    81239
        7  | 18:03.15 |  1:20.40 |     81240    |    87279
        8  | 19:23.55 |  3:03.40 |     87280    |   101044
        9  | 22:27.20 |  1:36.17 |    101045    |   108261
       10  | 24:03.37 |  4:24.45 |    108262    |   128106
       11  | 28:28.07 |  1:23.30 |    128107    |   134361
       12  | 29:51.37 |  3:30.45 |    134362    |   150156
       13  | 33:22.07 |  1:23.35 |    150157    |   156416
       14  | 34:45.42 |  1:41.33 |    156417    |   164024
       15  | 36:27.00 |  3:00.05 |    164025    |   177529
Range status and errors
Selected range
     Filename F:\FLAC (bruk67)\Enya (FLAC)\1986 - Enya (Jimco Records JIM 0001, Japan 1989)\Enya - Enya.wav
     Peak level 91.2 %
     Extraction speed 2.3 X
     Range quality 100.0 %
     Test CRC 8DD3DBBB
     Copy CRC 8DD3DBBB
     Copy OK
No errors occurred
AccurateRip summary
Track  1  accurately ripped (confidence 6)  [2331CFE0]  (AR v2)
Track  2  accurately ripped (confidence 6)  [BE1E193B]  (AR v2)
Track  3  accurately ripped (confidence 6)  [460B202A]  (AR v2)
Track  4  accurately ripped (confidence 6)  [D3664A73]  (AR v2)
Track  5  accurately ripped (confidence 6)  [C4195F46]  (AR v2)
Track  6  accurately ripped (confidence 6)  [14855286]  (AR v2)
Track  7  accurately ripped (confidence 6)  [8C2D8D57]  (AR v2)
Track  8  accurately ripped (confidence 6)  [E27C0D50]  (AR v2)
Track  9  accurately ripped (confidence 7)  [AA5FFA34]  (AR v2)
Track 10  accurately ripped (confidence 7)  [7BC53368]  (AR v2)
Track 11  accurately ripped (confidence 7)  [D4BEADD8]  (AR v2)
Track 12  accurately ripped (confidence 7)  [9BAC4EA0]  (AR v2)
Track 13  accurately ripped (confidence 7)  [D383BCE9]  (AR v2)
Track 14  accurately ripped (confidence 7)  [A5F85F1B]  (AR v2)
Track 15  accurately ripped (confidence 7)  [9A2BE495]  (AR v2)
All tracks accurately ripped
End of status report
---- CUETools DB Plugin V2.1.6
[CTDB TOCID: UG6goyATUc4yMqejKFat_DQXBw8-] found
Submit result: UG6goyATUc4yMqejKFat_DQXBw8- has been confirmed
Track | CTDB Status
  1   | (29/29) Accurately ripped
  2   | (29/29) Accurately ripped
  3   | (29/29) Accurately ripped
  4   | (29/29) Accurately ripped
  5   | (29/29) Accurately ripped
  6   | (29/29) Accurately ripped
  7   | (29/29) Accurately ripped
  8   | (29/29) Accurately ripped
  9   | (29/29) Accurately ripped
 10   | (29/29) Accurately ripped
 11   | (29/29) Accurately ripped
 12   | (29/29) Accurately ripped
 13   | (29/29) Accurately ripped
 14   | (29/29) Accurately ripped
 15   | (29/29) Accurately ripped
==== Log checksum 6ACAD2C426588DE63B2C7D7E39D3DD4E7C9BEA3FA24D6BD51158540320B126EF ====
 
Скриншот спектра частот

 
1988 - Watermark

Страна-производитель диска: picJapan
Год издания диска: 1989
Издатель (лейбл): WEA
Номер по каталогу: 25P2-2465
Продолжительность: 40:06
Треклист▼

01. Watermark
02. Cursum Perficio
03. On Your Shore
04. Storms In Africa
05. Exile
06. Miss Clare Remembers
07. Orinoco Flow
08. Evening Falls...
09. River
10. The Longships
11. Na Laetha Geal M'oige

pic
pic

 
Лог создания рипа
Exact Audio Copy V1.3 from 2. September 2016
EAC extraction logfile from 19. January 2019, 17:24
Enya / Watermark
Used drive  : PLEXTOR DVDR   PX-760A   Adapter: 1  ID: 0
Read mode               : Secure
Utilize accurate stream : Yes
Defeat audio cache      : Yes
Make use of C2 pointers : No
Read offset correction                      : 30
Overread into Lead-In and Lead-Out          : No
Fill up missing offset samples with silence : Yes
Delete leading and trailing silent blocks   : No
Null samples used in CRC calculations       : Yes
Used interface                              : Native Win32 interface for Win NT & 2000
Used output format : Internal WAV Routines
Sample format      : 44.100 Hz; 16 Bit; Stereo
TOC of the extracted CD
     Track |   Start  |  Length  | Start sector | End sector
    ---------------------------------------------------------
        1  |  0:00.00 |  2:26.10 |         0    |    10959
        2  |  2:26.10 |  4:09.25 |     10960    |    29659
        3  |  6:35.35 |  4:00.12 |     29660    |    47671
        4  | 10:35.47 |  4:04.58 |     47672    |    66029
        5  | 14:40.30 |  4:21.62 |     66030    |    85666
        6  | 19:02.17 |  1:59.45 |     85667    |    94636
        7  | 21:01.62 |  4:26.28 |     94637    |   114614
        8  | 25:28.15 |  3:49.17 |    114615    |   131806
        9  | 29:17.32 |  3:11.60 |    131807    |   146191
       10  | 32:29.17 |  3:38.68 |    146192    |   162609
       11  | 36:08.10 |  3:58.05 |    162610    |   180464
Range status and errors
Selected range
     Filename F:\FLAC (bruk67)\Enya (FLAC)\1988 - Watermark (WEA 25P2-2465, Japan 1989)\Enya - Watermark.wav
     Peak level 96.4 %
     Extraction speed 2.3 X
     Range quality 100.0 %
     Test CRC 5AE8CE77
     Copy CRC 5AE8CE77
     Copy OK
No errors occurred
AccurateRip summary
Track  1  accurately ripped (confidence 71)  [69C0AEB8]  (AR v2)
Track  2  accurately ripped (confidence 73)  [44D065FB]  (AR v2)
Track  3  accurately ripped (confidence 73)  [1D77D887]  (AR v2)
Track  4  accurately ripped (confidence 74)  [9DF8BAF6]  (AR v2)
Track  5  accurately ripped (confidence 72)  [41CC5F5B]  (AR v2)
Track  6  accurately ripped (confidence 72)  [92FF50D6]  (AR v2)
Track  7  accurately ripped (confidence 74)  [9E7E6F84]  (AR v2)
Track  8  accurately ripped (confidence 73)  [8087B458]  (AR v2)
Track  9  accurately ripped (confidence 74)  [49B60097]  (AR v2)
Track 10  accurately ripped (confidence 73)  [C976DF29]  (AR v2)
Track 11  accurately ripped (confidence 72)  [4646FB9E]  (AR v2)
All tracks accurately ripped
End of status report
---- CUETools DB Plugin V2.1.6
[CTDB TOCID: wi7vdhcnWjGtq58wtbtWYa_Sxf8-] found
Submit result: wi7vdhcnWjGtq58wtbtWYa_Sxf8- has been confirmed
Track | CTDB Status
  1   | (292/300) Accurately ripped
  2   | (291/300) Accurately ripped
  3   | (295/300) Accurately ripped
  4   | (291/300) Accurately ripped
  5   | (293/300) Accurately ripped
  6   | (293/300) Accurately ripped
  7   | (291/300) Accurately ripped
  8   | (292/300) Accurately ripped
  9   | (293/300) Accurately ripped
 10   | (289/300) Accurately ripped
 11   | (288/300) Accurately ripped
==== Log checksum AED586C2B628C13A95E94E8E856878E34BF47B96C2558AF70ABCE0C91DFB0FC2 ====
 
Скриншот спектра частот

 
1991 - Shepherd Moons

Страна-производитель диска: picJapan
Год издания диска: 1991
Издатель (лейбл): WEA
Номер по каталогу: WMC5-450
Продолжительность: 43:33
Треклист▼

01. Shepherd Moons
02. Caribbean Blue
03. How Can I Keep From Singing?
04. Ebudae
05. Angeles
06. No Holly For Miss Quinn
07. Book Of Days
08. Evacuee
09. Lothlorien
10. Marble Halls
11. Afer Ventus
12. Smaointe

pic
pic

 
Лог создания рипа
Exact Audio Copy V1.3 from 2. September 2016
EAC extraction logfile from 19. January 2019, 18:05
Enya / Shepherd Moons
Used drive  : PLEXTOR DVDR   PX-760A   Adapter: 1  ID: 0
Read mode               : Secure
Utilize accurate stream : Yes
Defeat audio cache      : Yes
Make use of C2 pointers : No
Read offset correction                      : 30
Overread into Lead-In and Lead-Out          : No
Fill up missing offset samples with silence : Yes
Delete leading and trailing silent blocks   : No
Null samples used in CRC calculations       : Yes
Used interface                              : Native Win32 interface for Win NT & 2000
Used output format : Internal WAV Routines
Sample format      : 44.100 Hz; 16 Bit; Stereo
TOC of the extracted CD
     Track |   Start  |  Length  | Start sector | End sector
    ---------------------------------------------------------
        1  |  0:00.00 |  3:45.40 |         0    |    16914
        2  |  3:45.40 |  3:59.35 |     16915    |    34874
        3  |  7:45.00 |  4:25.42 |     34875    |    54791
        4  | 12:10.42 |  1:55.58 |     54792    |    63474
        5  | 14:06.25 |  4:01.17 |     63475    |    81566
        6  | 18:07.42 |  2:43.73 |     81567    |    93864
        7  | 20:51.40 |  2:33.65 |     93865    |   105404
        8  | 23:25.30 |  3:50.37 |    105405    |   122691
        9  | 27:15.67 |  2:07.35 |    122692    |   132251
       10  | 29:23.27 |  3:55.08 |    132252    |   149884
       11  | 33:18.35 |  4:06.37 |    149885    |   168371
       12  | 37:24.72 |  6:08.13 |    168372    |   195984
Range status and errors
Selected range
     Filename F:\FLAC (bruk67)\Enya (FLAC)\1991 - Shepherd Moons (WEA WMC5-450, Japan)\Enya - Shepherd Moons.wav
     Peak level 85.0 %
     Extraction speed 2.3 X
     Range quality 100.0 %
     Test CRC 6CE9FE10
     Copy CRC 6CE9FE10
     Copy OK
No errors occurred
AccurateRip summary
Track  1  accurately ripped (confidence 16)  [98695E7E]  (AR v2)
Track  2  accurately ripped (confidence 16)  [5F98EAA9]  (AR v2)
Track  3  accurately ripped (confidence 16)  [E134DBC3]  (AR v2)
Track  4  accurately ripped (confidence 16)  [B9391BE2]  (AR v2)
Track  5  accurately ripped (confidence 16)  [0A2DC269]  (AR v2)
Track  6  accurately ripped (confidence 16)  [630F8D7F]  (AR v2)
Track  7  accurately ripped (confidence 16)  [D080CD71]  (AR v2)
Track  8  accurately ripped (confidence 16)  [BF68B768]  (AR v2)
Track  9  accurately ripped (confidence 16)  [B6ECC1F0]  (AR v2)
Track 10  accurately ripped (confidence 16)  [AA5559DD]  (AR v2)
Track 11  accurately ripped (confidence 16)  [C75946F5]  (AR v2)
Track 12  accurately ripped (confidence 16)  [064F6B7D]  (AR v2)
All tracks accurately ripped
End of status report
---- CUETools DB Plugin V2.1.6
[CTDB TOCID: Kj23jDQQ.TWztxmTLMr8V6.AufQ-] found
Submit result: Kj23jDQQ.TWztxmTLMr8V6.AufQ- has been confirmed
Track | CTDB Status
  1   | (209/210) Accurately ripped
  2   | (209/210) Accurately ripped
  3   | (208/210) Accurately ripped
  4   | (206/210) Accurately ripped
  5   | (208/210) Accurately ripped
  6   | (208/210) Accurately ripped
  7   | (207/210) Accurately ripped
  8   | (206/210) Accurately ripped
  9   | (208/210) Accurately ripped
 10   | (207/210) Accurately ripped
 11   | (206/210) Accurately ripped
 12   | (205/210) Accurately ripped
==== Log checksum A01E5F669C943265A81F1848BB3CE34CBD301A664E6FDE044E84016C0E91956D ====
 
Скриншот спектра частот

 
1995 - The Memory Of Trees
Страна-производитель диска: picJapan
Год издания диска: 1995
Издатель (лейбл): WEA
Номер по каталогу: WPCR-550
Продолжительность: 46:44
Треклист▼

01. The Memory Of Trees
02. Anywhere Is
03. Pax Deorum
04. Athair Ar Neamh
05. From Where I Am
06. China Roses
07. Hope Has A Place
08. Tea-House Moon
09. Once You Had Gold
10. La Sonadora
11. On My Way Home
12. Oriel Window (Bonus Track)

pic
pic

 
Лог создания рипа
Exact Audio Copy V1.3 from 2. September 2016
EAC extraction logfile from 19. January 2019, 18:50
Enya / The Memory Of Trees
Used drive  : PLEXTOR DVDR   PX-760A   Adapter: 1  ID: 0
Read mode               : Secure
Utilize accurate stream : Yes
Defeat audio cache      : Yes
Make use of C2 pointers : No
Read offset correction                      : 30
Overread into Lead-In and Lead-Out          : No
Fill up missing offset samples with silence : Yes
Delete leading and trailing silent blocks   : No
Null samples used in CRC calculations       : Yes
Used interface                              : Native Win32 interface for Win NT & 2000
Used output format : Internal WAV Routines
Sample format      : 44.100 Hz; 16 Bit; Stereo
TOC of the extracted CD
     Track |   Start  |  Length  | Start sector | End sector
    ---------------------------------------------------------
        1  |  0:00.00 |  4:20.32 |         0    |    19531
        2  |  4:20.32 |  3:59.35 |     19532    |    37491
        3  |  8:19.67 |  4:59.50 |     37492    |    59966
        4  | 13:19.42 |  3:42.08 |     59967    |    76624
        5  | 17:01.50 |  2:22.65 |     76625    |    87339
        6  | 19:24.40 |  4:49.60 |     87340    |   109074
        7  | 24:14.25 |  4:48.45 |    109075    |   130719
        8  | 29:02.70 |  2:43.32 |    130720    |   142976
        9  | 31:46.27 |  3:18.28 |    142977    |   157854
       10  | 35:04.55 |  3:38.17 |    157855    |   174221
       11  | 38:42.72 |  5:38.60 |    174222    |   199631
       12  | 44:21.57 |  2:22.18 |    199632    |   210299
Range status and errors
Selected range
     Filename F:\FLAC (bruk67)\Enya (FLAC)\1995 - The Memory Of Trees (WEA WPCR-550, Japan)\Enya - The Memory Of Trees.wav
     Peak level 97.7 %
     Extraction speed 2.3 X
     Range quality 100.0 %
     Test CRC AFAC0F22
     Copy CRC AFAC0F22
     Copy OK
No errors occurred
AccurateRip summary
Track  1  accurately ripped (confidence 62)  [16A80E66]  (AR v2)
Track  2  accurately ripped (confidence 62)  [90CB87E9]  (AR v2)
Track  3  accurately ripped (confidence 62)  [4A6EF082]  (AR v2)
Track  4  accurately ripped (confidence 62)  [F534F1BD]  (AR v2)
Track  5  accurately ripped (confidence 62)  [EFA513C1]  (AR v2)
Track  6  accurately ripped (confidence 62)  [36E895A3]  (AR v2)
Track  7  accurately ripped (confidence 62)  [7756ACE5]  (AR v2)
Track  8  accurately ripped (confidence 62)  [16D23C72]  (AR v2)
Track  9  accurately ripped (confidence 62)  [4CC75C69]  (AR v2)
Track 10  accurately ripped (confidence 62)  [28571DBA]  (AR v2)
Track 11  accurately ripped (confidence 62)  [CC8408E3]  (AR v2)
Track 12  accurately ripped (confidence 62)  [CFA2650D]  (AR v2)
All tracks accurately ripped
End of status report
---- CUETools DB Plugin V2.1.6
[CTDB TOCID: bhHSkLOQIk6pLw5wdzeEJM.zv2Q-] found
Submit result: bhHSkLOQIk6pLw5wdzeEJM.zv2Q- has been confirmed
Track | CTDB Status
  1   | (217/222) Accurately ripped
  2   | (219/222) Accurately ripped
  3   | (218/222) Accurately ripped
  4   | (217/222) Accurately ripped
  5   | (219/222) Accurately ripped
  6   | (218/222) Accurately ripped
  7   | (218/222) Accurately ripped
  8   | (218/222) Accurately ripped
  9   | (219/222) Accurately ripped
 10   | (219/222) Accurately ripped
 11   | (217/222) Accurately ripped
 12   | (219/222) Accurately ripped
==== Log checksum C8D74872E9645551BDD1B7AB91D020BC8724C2AD948C1AD91993E0D2B68CA0C4 ====
 
Скриншот спектра частот

 
2000 - A Day Without Rain

Страна-производитель диска: picJapan
Год издания диска: 2000
Издатель (лейбл): WEA
Номер по каталогу: WPCR-11000
Продолжительность: 38:54
Треклист▼

01. A Day Without Rain
02. Wild Child
03. Only Time
04. Tempus Vernum
05. Deora Ar Mo Chroi
06. Flora's Secret
07. Fallen Embers
08. Silver Inches
09. Pilgrim
10. One By One
11. Isobella
12. Lazy Days

pic
pic

 
Лог создания рипа
Exact Audio Copy V1.3 from 2. September 2016
EAC extraction logfile from 19. January 2019, 19:33
Enya / A Day Without Rain
Used drive  : PLEXTOR DVDR   PX-760A   Adapter: 1  ID: 0
Read mode               : Secure
Utilize accurate stream : Yes
Defeat audio cache      : Yes
Make use of C2 pointers : No
Read offset correction                      : 30
Overread into Lead-In and Lead-Out          : No
Fill up missing offset samples with silence : Yes
Delete leading and trailing silent blocks   : No
Null samples used in CRC calculations       : Yes
Used interface                              : Native Win32 interface for Win NT & 2000
Used output format : Internal WAV Routines
Sample format      : 44.100 Hz; 16 Bit; Stereo
TOC of the extracted CD
     Track |   Start  |  Length  | Start sector | End sector
    ---------------------------------------------------------
        1  |  0:00.00 |  2:38.05 |         0    |    11854
        2  |  2:38.05 |  3:47.70 |     11855    |    28949
        3  |  6:26.00 |  3:38.02 |     28950    |    45301
        4  | 10:04.02 |  2:24.20 |     45302    |    56121
        5  | 12:28.22 |  2:48.63 |     56122    |    68784
        6  | 15:17.10 |  4:07.37 |     68785    |    87346
        7  | 19:24.47 |  2:31.03 |     87347    |    98674
        8  | 21:55.50 |  1:37.67 |     98675    |   106016
        9  | 23:33.42 |  3:12.53 |    106017    |   120469
       10  | 26:46.20 |  3:54.47 |    120470    |   138066
       11  | 30:40.67 |  4:30.23 |    138067    |   158339
       12  | 35:11.15 |  3:42.57 |    158340    |   175046
Range status and errors
Selected range
     Filename F:\FLAC (bruk67)\Enya (FLAC)\2000 - A Day Without Rain (WEA WPCR-11000, Japan)\Enya - A Day Without Rain.wav
     Peak level 100.0 %
     Extraction speed 2.2 X
     Range quality 99.9 %
     Test CRC 48E609F2
     Copy CRC 48E609F2
     Copy OK
No errors occurred
AccurateRip summary
Track  1  accurately ripped (confidence 43)  [3EF6455E]  (AR v2)
Track  2  accurately ripped (confidence 43)  [C219548A]  (AR v2)
Track  3  accurately ripped (confidence 43)  [A31C5AE4]  (AR v2)
Track  4  accurately ripped (confidence 42)  [EEFFD1F1]  (AR v2)
Track  5  accurately ripped (confidence 42)  [8532E2D9]  (AR v2)
Track  6  accurately ripped (confidence 43)  [E61681E3]  (AR v2)
Track  7  accurately ripped (confidence 41)  [309E5712]  (AR v2)
Track  8  accurately ripped (confidence 41)  [23F8638F]  (AR v2)
Track  9  accurately ripped (confidence 41)  [9D1B3A1E]  (AR v2)
Track 10  accurately ripped (confidence 41)  [BDF4FADE]  (AR v2)
Track 11  accurately ripped (confidence 41)  [7BC3D6F5]  (AR v2)
Track 12  accurately ripped (confidence 41)  [5CA34925]  (AR v2)
All tracks accurately ripped
End of status report
---- CUETools DB Plugin V2.1.6
[CTDB TOCID: IO3UdmMDpCsxBKZJvE.4a0AhgRw-] found
Submit result: IO3UdmMDpCsxBKZJvE.4a0AhgRw- has been confirmed
Track | CTDB Status
  1   | (285/294) Accurately ripped
  2   | (281/294) Accurately ripped
  3   | (283/294) Accurately ripped
  4   | (287/294) Accurately ripped
  5   | (282/294) Accurately ripped
  6   | (283/294) Accurately ripped
  7   | (283/294) Accurately ripped
  8   | (283/294) Accurately ripped
  9   | (282/294) Accurately ripped
 10   | (281/294) Accurately ripped
 11   | (281/294) Accurately ripped
 12   | (289/294) Accurately ripped
==== Log checksum F205460D812D0A6C602804BCA977FD3B79A9ED001BF872B70DD89D0CCBAF51DB ====
 
Скриншот спектра частот

 
2005 - Amarantine

Страна-производитель диска: picJapan
Год издания диска: 2005
Издатель (лейбл): Warner Bros. Records
Номер по каталогу: WPCR-12221
Продолжительность: 45:35
Треклист▼

01. Less Than A Pearl
02. Amarantine
03. It's In The Rain
04. If I Could Be Where You Are
05. The River Sings
06. Long Long Journey
07. Sumiregusa
08. Someone Said Goodbye
09. A Moment Lost
10. Drifting
11. Amid The Falling Snow
12. Water Shows The Hidden Heart

pic
pic

 
Лог создания рипа
Exact Audio Copy V1.3 from 2. September 2016
EAC extraction logfile from 19. January 2019, 20:23
Enya / Amarantine
Used drive  : PLEXTOR DVDR   PX-760A   Adapter: 1  ID: 0
Read mode               : Secure
Utilize accurate stream : Yes
Defeat audio cache      : Yes
Make use of C2 pointers : No
Read offset correction                      : 30
Overread into Lead-In and Lead-Out          : No
Fill up missing offset samples with silence : Yes
Delete leading and trailing silent blocks   : No
Null samples used in CRC calculations       : Yes
Used interface                              : Native Win32 interface for Win NT & 2000
Used output format : Internal WAV Routines
Sample format      : 44.100 Hz; 16 Bit; Stereo
TOC of the extracted CD
     Track |   Start  |  Length  | Start sector | End sector
    ---------------------------------------------------------
        1  |  0:00.00 |  3:44.20 |         0    |    16819
        2  |  3:44.20 |  3:12.55 |     16820    |    31274
        3  |  6:57.00 |  4:08.05 |     31275    |    49879
        4  | 11:05.05 |  4:00.51 |     49880    |    67930
        5  | 15:05.56 |  2:49.45 |     67931    |    80650
        6  | 17:55.26 |  3:17.24 |     80651    |    95449
        7  | 21:12.50 |  4:42.04 |     95450    |   116603
        8  | 25:54.54 |  4:02.19 |    116604    |   134772
        9  | 29:56.73 |  3:08.37 |    134773    |   148909
       10  | 33:05.35 |  4:11.59 |    148910    |   167793
       11  | 37:17.19 |  3:38.48 |    167794    |   184191
       12  | 40:55.67 |  4:39.08 |    184192    |   205124
Range status and errors
Selected range
     Filename F:\FLAC (bruk67)\Enya (FLAC)\2005 - Amarantine (Warner Bros. Records WPCR-12221, Japan)\Enya - Amarantine.wav
     Peak level 99.6 %
     Extraction speed 2.2 X
     Range quality 99.9 %
     Test CRC 2359AEC7
     Copy CRC 2359AEC7
     Copy OK
No errors occurred
AccurateRip summary
Track  1  accurately ripped (confidence 156)  [DF88FD30]  (AR v2)
Track  2  accurately ripped (confidence 157)  [F1691714]  (AR v2)
Track  3  accurately ripped (confidence 157)  [B083729C]  (AR v2)
Track  4  accurately ripped (confidence 155)  [13B3E0C3]  (AR v2)
Track  5  accurately ripped (confidence 157)  [ABEF5500]  (AR v2)
Track  6  accurately ripped (confidence 157)  [31A72ADE]  (AR v2)
Track  7  accurately ripped (confidence 156)  [D2F23B0E]  (AR v2)
Track  8  accurately ripped (confidence 156)  [6BB56E80]  (AR v2)
Track  9  accurately ripped (confidence 157)  [5F58E10B]  (AR v2)
Track 10  accurately ripped (confidence 156)  [99AA8FC4]  (AR v2)
Track 11  accurately ripped (confidence 155)  [880CC0BE]  (AR v2)
Track 12  accurately ripped (confidence 157)  [55F7E81E]  (AR v2)
All tracks accurately ripped
End of status report
---- CUETools DB Plugin V2.1.6
[CTDB TOCID: T3kspEjp__sKEx5GamGrUGkoKN8-] found
Submit result: T3kspEjp__sKEx5GamGrUGkoKN8- has been confirmed
Track | CTDB Status
  1   | (2210/2239) Accurately ripped
  2   | (2214/2239) Accurately ripped
  3   | (2209/2239) Accurately ripped
  4   | (2214/2239) Accurately ripped
  5   | (2215/2239) Accurately ripped
  6   | (2215/2239) Accurately ripped
  7   | (2214/2239) Accurately ripped
  8   | (2208/2239) Accurately ripped
  9   | (2208/2239) Accurately ripped
 10   | (2207/2239) Accurately ripped
 11   | (2207/2239) Accurately ripped
 12   | (2174/2239) Accurately ripped, or (3/2239) differs in 1564 samples @04:38:65-04:38:67, or (4/2239) differs in 4675 samples @04:38:61-04:38:67, or (4/2239) differs in 4650 samples @04:38:61-04:38:67, or (5/2239) differs in 1500 samples @04:38:64-04:38:66, or (3/2239) differs in 4561 samples @04:38:61-04:38:67, or (3/2239) differs in 1687 samples @04:38:65-04:38:67, or (2/2239) differs in 4601 samples @04:38:61-04:38:67
==== Log checksum 2C77EC028A057293EE6785731B210A270909C924AC0A1AF8413210A2C39432FA ====
 
Скриншот спектра частот

 
2008 - And Winter Came...

Страна-производитель диска: picJapan
Год издания диска: 2008
Издатель (лейбл): Warner Bros. Records
Номер по каталогу: WPCR 13203
Продолжительность: 45:05
Треклист▼

01. And Winter Came...
02. Journey Of The Angels
03. White Is In The Winter Night
04. O Come, O Come, Emmanuel
05. Trains And Winter Rains
06. Dreams Are More Precious
07. Last Time By Moonlight
08. One Toy Soldier
09. Stars And Midnight Blue
10. The Spirit Of Christmas Past
11. My! My! Time Flies!
12. Oiche Chiuin (Chorale)

pic
pic

 
Лог создания рипа
Exact Audio Copy V1.3 from 2. September 2016
EAC extraction logfile from 19. January 2019, 21:18
Enya / And Winter Came...
Used drive  : PLEXTOR DVDR   PX-760A   Adapter: 1  ID: 0
Read mode               : Secure
Utilize accurate stream : Yes
Defeat audio cache      : Yes
Make use of C2 pointers : No
Read offset correction                      : 30
Overread into Lead-In and Lead-Out          : No
Fill up missing offset samples with silence : Yes
Delete leading and trailing silent blocks   : No
Null samples used in CRC calculations       : Yes
Used interface                              : Native Win32 interface for Win NT & 2000
Used output format : Internal WAV Routines
Sample format      : 44.100 Hz; 16 Bit; Stereo
TOC of the extracted CD
     Track |   Start  |  Length  | Start sector | End sector
    ---------------------------------------------------------
        1  |  0:00.00 |  3:15.63 |         0    |    14687
        2  |  3:15.63 |  4:47.20 |     14688    |    36232
        3  |  8:03.08 |  3:00.13 |     36233    |    49745
        4  | 11:03.21 |  3:40.14 |     49746    |    66259
        5  | 14:43.35 |  3:44.56 |     66260    |    83115
        6  | 18:28.16 |  4:25.53 |     83116    |   103043
        7  | 22:53.69 |  3:57.53 |    103044    |   120871
        8  | 26:51.47 |  3:54.22 |    120872    |   138443
        9  | 30:45.69 |  3:08.55 |    138444    |   152598
       10  | 33:54.49 |  4:18.05 |    152599    |   171953
       11  | 38:12.54 |  3:02.69 |    171954    |   185672
       12  | 41:15.48 |  3:49.42 |    185673    |   202889
Range status and errors
Selected range
     Filename F:\FLAC (bruk67)\Enya (FLAC)\2008 - And Winter Came... (Warner Bros. Records WPCR 13203, Japan)\Enya - And Winter Came....wav
     Peak level 99.7 %
     Extraction speed 2.3 X
     Range quality 100.0 %
     Test CRC 901C33B9
     Copy CRC 901C33B9
     Copy OK
No errors occurred
AccurateRip summary
Track  1  accurately ripped (confidence 86)  [E290D381]  (AR v2)
Track  2  accurately ripped (confidence 88)  [BE7D9BF9]  (AR v2)
Track  3  accurately ripped (confidence 89)  [A2E1C189]  (AR v2)
Track  4  accurately ripped (confidence 89)  [AFE24DCE]  (AR v2)
Track  5  accurately ripped (confidence 87)  [FB909C01]  (AR v2)
Track  6  accurately ripped (confidence 88)  [9DB22B54]  (AR v2)
Track  7  accurately ripped (confidence 88)  [96AE6814]  (AR v2)
Track  8  accurately ripped (confidence 89)  [648C1629]  (AR v2)
Track  9  accurately ripped (confidence 88)  [8D40DB91]  (AR v2)
Track 10  accurately ripped (confidence 86)  [480EA51B]  (AR v2)
Track 11  accurately ripped (confidence 87)  [739E7EDD]  (AR v2)
Track 12  accurately ripped (confidence 88)  [46FB97A6]  (AR v2)
All tracks accurately ripped
End of status report
---- CUETools DB Plugin V2.1.6
[CTDB TOCID: LKN7MP0O3EdDAC8B5Jcfw1PYZYI-] found
Submit result: LKN7MP0O3EdDAC8B5Jcfw1PYZYI- has been confirmed
Track | CTDB Status
  1   | (211/1914) Accurately ripped
  2   | (211/1914) Accurately ripped
  3   | (213/1914) Accurately ripped
  4   | (213/1914) Accurately ripped
  5   | (214/1914) Accurately ripped
  6   | (214/1914) Accurately ripped
  7   | (214/1914) Accurately ripped
  8   | (213/1914) Accurately ripped
  9   | (214/1914) Accurately ripped
 10   | (212/1914) Accurately ripped
 11   | (212/1914) Accurately ripped
 12   | (209/1914) Accurately ripped
==== Log checksum DB96ACC8D10640ED7ACB4D33A298D84DB9A46464D41928281ABE19553B5DA08D ====
 
Скриншот спектра частот

 
2015 - Dark Sky Island (Deluxe Edition)

Страна-производитель диска: picJapan
Год издания диска: 2015
Издатель (лейбл): Warner Bros. Records
Номер по каталогу: WPCR-17045
Продолжительность: 54:36
Треклист▼

01. The Humming
02. So I Could Find My Way
03. Even In The Shadows
04. The Forge Of The Angels
05. Echoes In Rain
06. I Could Never Say Goodbye
07. Dark Sky Island
08. Sancta Maria
09. Astra Et Luna
10. The Loxian Gates
11. Diamonds On The Water
12. Solace (Bonus Track)
13. Pale Grass Blue (Bonus Track)
14. Remember Your Smile (Bonus Track)

pic
pic

 
Лог создания рипа
Exact Audio Copy V1.3 from 2. September 2016
EAC extraction logfile from 19. January 2019, 22:11
Enya / Dark Sky Island
Used drive  : PLEXTOR DVDR   PX-760A   Adapter: 1  ID: 0
Read mode               : Secure
Utilize accurate stream : Yes
Defeat audio cache      : Yes
Make use of C2 pointers : No
Read offset correction                      : 30
Overread into Lead-In and Lead-Out          : No
Fill up missing offset samples with silence : Yes
Delete leading and trailing silent blocks   : No
Null samples used in CRC calculations       : Yes
Used interface                              : Native Win32 interface for Win NT & 2000
Used output format : Internal WAV Routines
Sample format      : 44.100 Hz; 16 Bit; Stereo
TOC of the extracted CD
     Track |   Start  |  Length  | Start sector | End sector
    ---------------------------------------------------------
        1  |  0:00.00 |  3:45.09 |         0    |    16883
        2  |  3:45.09 |  4:25.72 |     16884    |    36830
        3  |  8:11.06 |  4:14.18 |     36831    |    55898
        4  | 12:25.24 |  5:14.15 |     55899    |    79463
        5  | 17:39.39 |  3:35.34 |     79464    |    95622
        6  | 21:14.73 |  3:29.71 |     95623    |   111368
        7  | 24:44.69 |  4:57.33 |    111369    |   133676
        8  | 29:42.27 |  3:51.48 |    133677    |   151049
        9  | 33:34.00 |  3:21.07 |    151050    |   166131
       10  | 36:55.07 |  3:34.66 |    166132    |   182247
       11  | 40:29.73 |  3:35.29 |    182248    |   198401
       12  | 44:05.27 |  3:58.50 |    198402    |   216301
       13  | 48:04.02 |  3:34.35 |    216302    |   232386
       14  | 51:38.37 |  2:57.65 |    232387    |   245726
Range status and errors
Selected range
     Filename F:\FLAC (bruk67)\Enya (FLAC)\2015 - Dark Sky Island (Warner Bros. Records WPCR-17045, Deluxe Edition, Japan)\Enya - Dark Sky Island.wav
     Peak level 99.9 %
     Extraction speed 2.3 X
     Range quality 100.0 %
     Test CRC 11BB293F
     Copy CRC 11BB293F
     Copy OK
No errors occurred
AccurateRip summary
Track  1  accurately ripped (confidence 200)  [88D6F062]  (AR v2)
Track  2  accurately ripped (confidence 200)  [0DDB1DBB]  (AR v2)
Track  3  accurately ripped (confidence 200)  [7DDB2D1D]  (AR v2)
Track  4  accurately ripped (confidence 200)  [ED65EC97]  (AR v2)
Track  5  accurately ripped (confidence 200)  [61FE6612]  (AR v2)
Track  6  accurately ripped (confidence 200)  [D999C1D5]  (AR v2)
Track  7  accurately ripped (confidence 200)  [53CE3F2A]  (AR v2)
Track  8  accurately ripped (confidence 200)  [3B59267B]  (AR v2)
Track  9  accurately ripped (confidence 200)  [007C3ED5]  (AR v2)
Track 10  accurately ripped (confidence 200)  [EC01B348]  (AR v2)
Track 11  accurately ripped (confidence 200)  [D6B8EB37]  (AR v2)
Track 12  accurately ripped (confidence 200)  [81F1A70E]  (AR v2)
Track 13  accurately ripped (confidence 200)  [DA0C274E]  (AR v2)
Track 14  accurately ripped (confidence 200)  [51DDA7B0]  (AR v2)
All tracks accurately ripped
End of status report
---- CUETools DB Plugin V2.1.6
[CTDB TOCID: CkECJScHINrWfmrg0vaOX1GOpYw-] found
Submit result: CkECJScHINrWfmrg0vaOX1GOpYw- has been confirmed
Track | CTDB Status
  1   | (1048/1053) Accurately ripped
  2   | (1048/1053) Accurately ripped
  3   | (1048/1053) Accurately ripped
  4   | (1049/1053) Accurately ripped
  5   | (1050/1053) Accurately ripped
  6   | (1049/1053) Accurately ripped
  7   | (1049/1053) Accurately ripped
  8   | (1049/1053) Accurately ripped
  9   | (1049/1053) Accurately ripped
 10   | (1046/1053) Accurately ripped
 11   | (1049/1053) Accurately ripped
 12   | (1050/1053) Accurately ripped
 13   | (1048/1053) Accurately ripped
 14   | (1043/1053) Accurately ripped
==== Log checksum DAE0FC4B6156E44623D34376355226EB54B383C47A2CC1FD973C7B4FFAC82045 ====
 
Скриншот спектра частот

Приватный:
Нет (DHT включён)
Размер:
2.79 Гб (2,999,319,226 байт) » файлов: 165
Участники:
5 раздают, 0 качают (5 участников всего)
Внешние участники:
23 раздают, 7 качают (30 участников всего) [ Обновить ]
Скорость:
0/c 1.63 Мб/c
Для участников группы Pro-jazz Club: никого нет на раздаче - пишите ЛС M0p94ok
For Pro-jazz Club group members: no seeders - write PM to M0p94ok
15:14
95
Нет комментариев. Ваш будет первым!