Поиск

1994 Nat King Cole - Legends {Wisepack LECD 070} [CD]

1994 Nat King Cole - Legends {Wisepack LECD 070} [CD]
Битрейт аудио:
lossless
Лог создания рипа
Exact Audio Copy V1.0 beta 3 from 29. August 2011

Отчёт EAC об извлечении, выполненном 16. января 2019, 22:02

Nat King Cole / Legends

Дисковод: SONY    CD-RW  CRX230ED   Adapter: 2  ID: 1

Режим чтения                 : Достоверность
Использование точного потока : Да
Отключение кэша аудио        : Да
Использование указателей C2  : Нет

Коррекция смещения при чтении                     : 6
Способность читать области Lead-in и Lead-out     : Нет
Заполнение пропущенных сэмплов тишиной            : Да
Удаление блоков с тишиной в начале и конце        : Нет
При вычислениях CRC использовались нулевые сэмплы : Да
Интерфейс                                         : Встроенный Win32-интерфейс для Win NT/2000

Выходной формат          : Пользовательский кодировщик
Выбранный битрейт        : 768 kBit/s
Качество                 : Высокий
Добавление ID3-тега      : Нет
Утилита сжатия           : C:\Program Files\FLAC\flac.exe
Дополнительные параметры : -V -8 -T "Date=%year%" -T "Genre=%genre%" %source%

TOC извлечённого CD

     Трек |   Старт  | Длительность | Начальный сектор | Конечный сектор
    ---------------------------------------------------------------------
       1  |  0:00.32 |    2:18.35   |          32      |      10416
       2  |  2:18.67 |    2:32.28   |       10417      |      21844
       3  |  4:51.20 |    2:00.52   |       21845      |      30896
       4  |  6:51.72 |    1:48.50   |       30897      |      39046
       5  |  8:40.47 |    2:07.60   |       39047      |      48631
       6  | 10:48.32 |    2:22.03   |       48632      |      59284
       7  | 13:10.35 |    2:20.30   |       59285      |      69814
       8  | 15:30.65 |    3:04.70   |       69815      |      83684
       9  | 18:35.60 |    3:41.40   |       83685      |     100299
      10  | 22:17.25 |    2:44.15   |      100300      |     112614
      11  | 25:01.40 |    1:33.70   |      112615      |     119659
      12  | 26:35.35 |    2:18.25   |      119660      |     130034
      13  | 28:53.60 |    3:10.47   |      130035      |     144331
      14  | 32:04.32 |    1:38.08   |      144332      |     151689
      15  | 33:42.40 |    2:15.07   |      151690      |     161821
      16  | 35:57.47 |    2:32.05   |      161822      |     173226
      17  | 38:29.52 |    3:06.60   |      173227      |     187236
      18  | 41:36.37 |    2:53.13   |      187237      |     200224
      19  | 44:29.50 |    3:08.45   |      200225      |     214369
      20  | 47:38.20 |    3:12.57   |      214370      |     228826
      21  | 50:51.02 |    1:34.70   |      228827      |     235946

Характеристики диапазона извлечения и сообщения об ошибках

Выбранный диапазон

     Имя файла F:\Nat King Cole - Legends [CD] - 1994 (lossless)\Nat King Cole - Legends.wav

     Пиковый уровень 95.8 %
     Скорость извлечения 5.7 X
     Качество диапазона 100.0 %
     CRC теста 16CBC11B
     CRC копии 16CBC11B
     Копирование... OK

Ошибок не произошло

AccurateRip: сводка

Трек  1  : извлечено точно (доверие 2)  [9D0F468E]  (AR v1)
Трек  2  : извлечено точно (доверие 2)  [9516E92B]  (AR v1)
Трек  3  : извлечено точно (доверие 2)  [52F5680F]  (AR v1)
Трек  4  : извлечено точно (доверие 2)  [D6F3B4F1]  (AR v1)
Трек  5  : извлечено точно (доверие 2)  [CDC5D71D]  (AR v1)
Трек  6  : извлечено точно (доверие 2)  [3CDB4165]  (AR v1)
Трек  7  : извлечено точно (доверие 2)  [AC1C6C2C]  (AR v1)
Трек  8  : извлечено точно (доверие 2)  [64D9FBD8]  (AR v1)
Трек  9  : извлечено точно (доверие 2)  [C1523A95]  (AR v1)
Трек 10  : извлечено точно (доверие 2)  [80DB4463]  (AR v1)
Трек 11  : извлечено точно (доверие 2)  [F81B9E82]  (AR v1)
Трек 12  : извлечено точно (доверие 2)  [9B0F2DDD]  (AR v1)
Трек 13  : извлечено точно (доверие 2)  [CA8AE6FB]  (AR v1)
Трек 14  : извлечено точно (доверие 2)  [AE0C7E68]  (AR v1)
Трек 15  : извлечено точно (доверие 2)  [87466008]  (AR v1)
Трек 16  : извлечено точно (доверие 2)  [C916B9BF]  (AR v1)
Трек 17  : извлечено точно (доверие 2)  [16DC0AB6]  (AR v1)
Трек 18  : извлечено точно (доверие 2)  [790AB7C3]  (AR v1)
Трек 19  : извлечено точно (доверие 2)  [AE32A31E]  (AR v1)
Трек 20  : извлечено точно (доверие 2)  [A3333AF8]  (AR v1)
Трек 21  : извлечено точно (доверие 2)  [2882D9DF]  (AR v1)

Все треки извлечены точно

Конец отчёта

==== Контрольная сумма отчёта BE1B26C55DDA498246614D912D902208D9E1C4593693C30340E4B5EF34D3E257 ====
Содержание индексной карты (.CUE)
REM GENRE Other
REM DATE 1994
REM DISCID 0F0C4915
REM COMMENT "ExactAudioCopy v1.0b3"
PERFORMER "Nat King Cole"
TITLE "Legends"
FILE "Nat King Cole - Legends.flac" WAVE
  TRACK 01 AUDIO
    TITLE "Somebody Loves Me"
    PERFORMER "Nat King Cole"
    INDEX 00 00:00:00
    INDEX 01 00:00:32
  TRACK 02 AUDIO
    TITLE "I've Grown Accustomed To Her Face"
    PERFORMER "Nat King Cole"
    INDEX 00 02:16:35
    INDEX 01 02:18:67
  TRACK 03 AUDIO
    TITLE "Unforgettable"
    PERFORMER "Nat King Cole"
    INDEX 00 04:50:10
    INDEX 01 04:51:20
  TRACK 04 AUDIO
    TITLE "This Can't Be Love"
    PERFORMER "Nat King Cole"
    INDEX 00 06:51:42
    INDEX 01 06:51:72
  TRACK 05 AUDIO
    TITLE "But Not For Me"
    PERFORMER "Nat King Cole"
    INDEX 00 08:40:05
    INDEX 01 08:40:47
  TRACK 06 AUDIO
    TITLE "True Love"
    PERFORMER "Nat King Cole"
    INDEX 00 10:46:25
    INDEX 01 10:48:32
  TRACK 07 AUDIO
    TITLE "Dance Ballerina Dan"
    PERFORMER "Nat King Cole"
    INDEX 00 13:08:57
    INDEX 01 13:10:35
  TRACK 08 AUDIO
    TITLE "Autumn Leaves"
    PERFORMER "Nat King Cole"
    INDEX 00 15:28:72
    INDEX 01 15:30:65
  TRACK 09 AUDIO
    TITLE "Just One Those Things"
    PERFORMER "Nat King Cole"
    INDEX 01 18:35:60
  TRACK 10 AUDIO
    TITLE "There Goes My Heart"
    PERFORMER "Nat King Cole"
    INDEX 00 22:15:05
    INDEX 01 22:17:25
  TRACK 11 AUDIO
    TITLE "Little Girl"
    PERFORMER "Nat King Cole"
    INDEX 00 24:57:42
    INDEX 01 25:01:40
  TRACK 12 AUDIO
    TITLE "Too Marvelous For Words"
    PERFORMER "Nat King Cole"
    INDEX 00 26:32:37
    INDEX 01 26:35:35
  TRACK 13 AUDIO
    TITLE "Too Young"
    PERFORMER "Nat King Cole"
    INDEX 00 28:49:45
    INDEX 01 28:53:60
  TRACK 14 AUDIO
    TITLE "When Your Smiling"
    PERFORMER "Nat King Cole"
    INDEX 00 32:03:00
    INDEX 01 32:04:32
  TRACK 15 AUDIO
    TITLE "Just In Time"
    PERFORMER "Nat King Cole"
    INDEX 00 33:41:62
    INDEX 01 33:42:40
  TRACK 16 AUDIO
    TITLE "Somewhere Along The Way"
    PERFORMER "Nat King Cole"
    INDEX 01 35:57:47
  TRACK 17 AUDIO
    TITLE "Mona Lisa"
    PERFORMER "Nat King Cole"
    INDEX 00 38:28:67
    INDEX 01 38:29:52
  TRACK 18 AUDIO
    TITLE "My Foolish Heart"
    PERFORMER "Nat King Cole"
    INDEX 00 41:33:72
    INDEX 01 41:36:37
  TRACK 19 AUDIO
    TITLE "Darling, Je Vous Aime Beaucoup"
    PERFORMER "Nat King Cole"
    INDEX 00 44:27:10
    INDEX 01 44:29:50
  TRACK 20 AUDIO
    TITLE "End Of A Beautifull Relationship"
    PERFORMER "Nat King Cole"
    INDEX 00 47:36:27
    INDEX 01 47:38:20
  TRACK 21 AUDIO
    TITLE "Sweet Sue, Just You"
    PERFORMER "Nat King Cole"
    INDEX 01 50:51:02
Лог проверки качества
-----------------------

DON'T MODIFY THIS FILE

-----------------------

PERFORMER: auCDtect Task Manager, ver. 1.6.0 RC1 build 1.6.0.1
Copyright (c) 2008-2010 y-soft. All rights reserved
http://y-soft.org

ANALYZER: auCDtect: CD records authenticity detector, version 0.8.2
Copyright (c) 2004 Oleg Berngardt. All rights reserved.
Copyright (c) 2004 Alexander Djourik. All rights reserved.

FILE: Nat King Cole - Legends.flac
  Size: 223323367 Hash: F9EC8E298E02FE6841DC2D5C59984505 Accuracy: -m0
  Conclusion: CDDA 100%
  Signature: 59C08A0AA0E1FC7B1F98B6C5420E5B017D3AA9CC
Скриншот спектра частот
1994 Nat King Cole - Legends {Wisepack LECD 070} [CD] 0
Приватный:
Нет (DHT включён)
Размер:
225.74 Мб (236,706,074 байт) » файлов: 9
Участники:
4 раздают, 0 качают (4 участников всего)
Внешние участники:
8 раздают, 2 качают (10 участников всего) [ Обновить ]
21:00
53
Нет комментариев. Ваш будет первым!