Поиск

2017 Naughty Professor - Identity [WEB]

2017 Naughty Professor - Identity [WEB]
Битрейт аудио:
lossless
Треклист:

1. Mirrors. 5:02
2. Sugarcoat. 4:18
3. Without A Trace. 4:31
4. Stray. 3:43
5. Do You Like Dragons? 6:22
6. I Can't Sleep At Night. 6:24
7. Through It All. 4:55
8. Venison Poetry. 5:20
9. Darker Daze. 4:11
10. Stolen Ones. 4:19
11. Psycho Switch. 7:31
12. Funk 4 Lunch. 6:04

released June 23, 2017

Жанр: Fusion / Jazz-Funk
Носитель: WEB
Год издания: 2017
Издатель (лейбл): Web Release
Страна исполнителя (группы): US
Аудиокодек: FLAC (*.flac)
Тип рипа: tracks
Битрейт аудио: lossless
Продолжительность: 62:47 min
Источник: bandcamp.com
Наличие сканов в содержимом раздачи: нет

 
DRM.log
foobar2000 1.3.8 / Dynamic Range Meter 1.1.1
log date: 2019-01-20 18:04:24
--------------------------------------------------------------------------------
Analyzed: Naughty Professor / Identity
--------------------------------------------------------------------------------
DR         Peak         RMS     Duration Track
--------------------------------------------------------------------------------
DR5       -0.09 dB    -6.72 dB      5:03 01-Mirrors
DR4       -0.09 dB    -6.48 dB      4:18 02-Sugarcoat
DR4       -0.09 dB    -6.53 dB      4:32 03-Without a Trace
DR4       -0.09 dB    -6.39 dB      3:44 04-Stray
DR5       -0.09 dB    -6.32 dB      6:23 05-Do You Like Dragons?
DR5       -0.09 dB    -6.42 dB      6:24 06-I Can't Sleep at Night
DR6       -0.09 dB    -7.88 dB      4:56 07-Through It All
DR5       -0.09 dB    -7.08 dB      5:21 08-Venison Poetry
DR5       -0.09 dB    -7.16 dB      4:12 09-Darker Daze
DR6       -0.09 dB    -8.29 dB      4:19 10-Stolen Ones
DR5       -0.09 dB    -6.91 dB      7:32 11-Psycho Switch
DR5       -0.09 dB    -6.41 dB      6:04 12-Funk 4 Lunch
--------------------------------------------------------------------------------
Number of tracks:  12
Official DR value: DR5
Samplerate:        44100 Hz
Channels:          2
Bits per sample:   16
Bitrate:           1067 kbps
Codec:             FLAC
================================================================================
Лог проверки качества
-----------------------

DON'T MODIFY THIS FILE

-----------------------

PERFORMER: auCDtect Task Manager, ver. 1.6.0 RC1 build 1.6.0.1
Copyright (c) 2008-2010 y-soft. All rights reserved
http://y-soft.org

ANALYZER: auCDtect: CD records authenticity detector, version 0.8.2
Copyright (c) 2004 Oleg Berngardt. All rights reserved.
Copyright (c) 2004 Alexander Djourik. All rights reserved.

FILE: 01. Mirrors.flac
  Size: 34011678 Hash: C6904458F2B08B4B53CCF0E49C3724BA Accuracy: -m0
  Conclusion: CDDA 100%
  Signature: 3FFF92A7B179F61D27DF9EDB151742A6322BC300
FILE: 02. Sugarcoat.flac
  Size: 29073840 Hash: 19678CEF877E8F2B1C1259873221A648 Accuracy: -m0
  Conclusion: CDDA 100%
  Signature: A2BE3DF17A80FD30F33CD45CC063462DA0DDDB92
FILE: 03 Without a Trace.flac
  Size: 33494188 Hash: 1E36B0301B812ACD709469463FD4B169 Accuracy: -m0
  Conclusion: CDDA 100%
  Signature: 0425CAF2AB5510A83F30D923AC08BB5DF6683F05
FILE: 04. Stray.flac
  Size: 27251873 Hash: EA2E982586DC6C78F7BF74505FA0FE34 Accuracy: -m0
  Conclusion: CDDA 100%
  Signature: BBC3887194B71E05B32ABD8897F4E0216117BA2D
FILE: 05. Do You Like Dragons.flac
  Size: 48059764 Hash: 42CA0B5C8063D2C0A213798E0116DF77 Accuracy: -m0
  Conclusion: MPEG 95%
  Signature: EAD6639A4A05C51B143736FBF4AFE6AA0A08EAEC
FILE: 06. I Can't Sleep at Night.flac
  Size: 47855906 Hash: BC3AB61D367AC9B051E3237F5B6AE368 Accuracy: -m0
  Conclusion: MPEG 95%
  Signature: F3C77D22B21DA730FFE970FFFDA20A0B69654E8A
FILE: 07. Through It All.flac
  Size: 32394332 Hash: 9BB75405E5639022BA289A6EC94C08F4 Accuracy: -m0
  Conclusion: MPEG 95%
  Signature: CE860C8C0CB0D37A4F6062467A86237F75403EAA
FILE: 08. Venison Poetry.flac
  Size: 37282551 Hash: CFFAEBB2ECFFD7554E65D2D69CBDBE05 Accuracy: -m0
  Conclusion: CDDA 100%
  Signature: 6A0C87E06200233BC8FDC0711414A1C800026E54
FILE: 09. Darker Daze.flac
  Size: 27757709 Hash: C0EF8C57DC4736790F667C17F08D0510 Accuracy: -m0
  Conclusion: CDDA 99%
  Signature: 07ED600793AF90F6D5F033303AAB03F65B1E7AE6
FILE: 10. Stolen Ones.flac
  Size: 29387523 Hash: B6DEAF0D4EFE34DEE8175F019DD49005 Accuracy: -m0
  Conclusion: CDDA 100%
  Signature: 681A026FF6BA80438584C8735481F3F94C2B9D7A
FILE: 11. Psycho Switch.flac
  Size: 52116229 Hash: 428A53F9000AC5415A574ECE7D63D1CF Accuracy: -m0
  Conclusion: MPEG 95%
  Signature: BE68F4840B7AB03033C03B026030793A04FF6A06
FILE: 12. Funk 4 Lunch.flac
  Size: 48695485 Hash: D3BCE2012D4DB220E1F9F93AB5C5142B Accuracy: -m0
  Conclusion: CDDA 100%
  Signature: AEFC630B92350218489A51F646F83DA8FF10442C
Скриншот спектра частот
2017 Naughty Professor - Identity [WEB] 02017 Naughty Professor - Identity [WEB] 12017 Naughty Professor - Identity [WEB] 22017 Naughty Professor - Identity [WEB] 3
Скачивание доступно после регистрации!!
Приватный:
Нет (DHT включён)
Размер:
427.19 Мб (447,938,013 байт) » файлов: 17
Участники:
8 раздают, 1 качают (9 участников всего)
Внешние участники:
14 раздают, 4 качают (18 участников всего) [ Обновить ]
Скорость:
1.71 Мб/c 0/c
22:51
72
Нет комментариев. Ваш будет первым!