Поиск

1973 Sonny Rollins - Complete Sonny Rollins in Japan (2018) {JVC VICJ-70051~2} [2CD]

1973 Sonny Rollins - Complete Sonny Rollins in Japan (2018) {JVC VICJ-70051~2} [2CD]
Битрейт аудио:
lossless
Треклист:

CD1 {46:27}

01. Powaii (Rollins) - 18:48
02. St. Thomas (Rollins) - 5:26
03. Alfie (Rollins) - 13:06
04. Moritat (Brecht-Weill) - 9:07

CD2 {58:15}

01. Sais (Mtume) - 29:10
02. God Bless the Child (Herzog-Holiday) - 14:20
03. Hold 'em Joe (Thomas) - 14:45

 
Логи
 
EAC CD1
Exact Audio Copy V1.3 from 2. September 2016
EAC extraction logfile from 18. January 2019, 16:58
Sonny Rollins / Complete Sonny Rollins In Japan (SHM-CD) (Disc 1)
Used drive  : HL-DT-STBD-RE  WH14NS40   Adapter: 1  ID: 1
Read mode               : Secure
Utilize accurate stream : Yes
Defeat audio cache      : Yes
Make use of C2 pointers : No
Read offset correction                      : 6
Overread into Lead-In and Lead-Out          : No
Fill up missing offset samples with silence : Yes
Delete leading and trailing silent blocks   : No
Null samples used in CRC calculations       : Yes
Used interface                              : Native Win32 interface for Win NT & 2000
Gap handling                                : Appended to previous track
Used output format              : User Defined Encoder
Selected bitrate                : 896 kBit/s
Quality                         : High
Add ID3 tag                     : No
Command line compressor         : C:\Program Files (x86)\Exact Audio Copy\Flac\flac.exe
Additional command line options : -8 -V -T "artist=%artist%" -T "title=%title%" -T "album=%albumtitle%" -T "date=%year%" -T "tracknumber=%tracknr%" -T "genre=%genre%" %source%
TOC of the extracted CD
     Track |   Start  |  Length  | Start sector | End sector
    ---------------------------------------------------------
        1  |  0:00.00 | 18:48.15 |         0    |    84614
        2  | 18:48.15 |  5:26.24 |     84615    |   109088
        3  | 24:14.39 | 13:06.34 |    109089    |   168072
        4  | 37:20.73 |  9:06.39 |    168073    |   209061
Track  1
     Filename D:\burn\Sonny Rollins - Complete Sonny Rollins In Japan (SHM-CD) (2018) (flac)\Disc 1\01 - Sonny Rollins - Powaii.wav
     Pre-gap length  0:00:02.00
     Peak level 98.8 %
     Extraction speed 3.2 X
     Track quality 100.0 %
     Test CRC 819E6AE4
     Copy CRC 819E6AE4
     Track not present in AccurateRip database
     Copy OK
Track  2
     Filename D:\burn\Sonny Rollins - Complete Sonny Rollins In Japan (SHM-CD) (2018) (flac)\Disc 1\02 - Sonny Rollins - St. Thomas.wav
     Peak level 90.2 %
     Extraction speed 1.4 X
     Track quality 99.9 %
     Test CRC 40613D1E
     Copy CRC 40613D1E
     Track not present in AccurateRip database
     Copy OK
Track  3
     Filename D:\burn\Sonny Rollins - Complete Sonny Rollins In Japan (SHM-CD) (2018) (flac)\Disc 1\03 - Sonny Rollins - Alfie.wav
     Peak level 98.8 %
     Extraction speed 1.8 X
     Track quality 100.0 %
     Test CRC A4614D1C
     Copy CRC A4614D1C
     Track not present in AccurateRip database
     Copy OK
Track  4
     Filename D:\burn\Sonny Rollins - Complete Sonny Rollins In Japan (SHM-CD) (2018) (flac)\Disc 1\04 - Sonny Rollins - Moritat.wav
     Peak level 96.6 %
     Extraction speed 2.0 X
     Track quality 100.0 %
     Test CRC 0F6109D0
     Copy CRC 0F6109D0
     Track not present in AccurateRip database
     Copy OK
None of the tracks are present in the AccurateRip database
No errors occurred
End of status report
---- CUETools DB Plugin V2.1.6
[CTDB TOCID: VUo4gevzw9c_C1pdjhdkIZkT.6E-] disk not present in database
Submit result: VUo4gevzw9c_C1pdjhdkIZkT.6E- has been uploaded
==== Log checksum AEFBCFABA369B2BC378F7553821E244FFDB7114D7EDF7B0399C5F4887F1BEFCD ====
 
Содержание индексной карты (.CUE) CD1
REM GENRE Jazz
REM DATE 1973
REM DISCID 210AE304
REM COMMENT "ExactAudioCopy v1.3"
CATALOG 4988002775835
PERFORMER "Sonny Rollins"
TITLE "Complete Sonny Rollins in Japan CD1"
FILE "01 - Powaii.wav" WAVE
  TRACK 01 AUDIO
    TITLE "Powaii"
    PERFORMER "Sonny Rollins"
    ISRC JPVI07300050
    INDEX 01 00:00:00
FILE "02 - St. Thomas.wav" WAVE
  TRACK 02 AUDIO
    TITLE "St. Thomas"
    PERFORMER "Sonny Rollins"
    ISRC JPVI07300060
    INDEX 01 00:00:00
FILE "03 - Alfie.wav" WAVE
  TRACK 03 AUDIO
    TITLE "Alfie"
    PERFORMER "Sonny Rollins"
    ISRC JPVI07300070
    INDEX 01 00:00:00
FILE "04 - Moritat.wav" WAVE
  TRACK 04 AUDIO
    TITLE "Moritat"
    PERFORMER "Sonny Rollins"
    ISRC JPVI07300080
    INDEX 01 00:00:00
 
EAC CD2
Exact Audio Copy V1.3 from 2. September 2016
EAC extraction logfile from 18. January 2019, 20:06
Sonny Rollins / Complete Sonny Rollins In Japan (SHM-CD) (Disc 2)
Used drive  : HL-DT-STBD-RE  WH14NS40   Adapter: 1  ID: 1
Read mode               : Secure
Utilize accurate stream : Yes
Defeat audio cache      : Yes
Make use of C2 pointers : No
Read offset correction                      : 6
Overread into Lead-In and Lead-Out          : No
Fill up missing offset samples with silence : Yes
Delete leading and trailing silent blocks   : No
Null samples used in CRC calculations       : Yes
Used interface                              : Native Win32 interface for Win NT & 2000
Gap handling                                : Appended to previous track
Used output format              : User Defined Encoder
Selected bitrate                : 896 kBit/s
Quality                         : High
Add ID3 tag                     : No
Command line compressor         : C:\Program Files (x86)\Exact Audio Copy\Flac\flac.exe
Additional command line options : -8 -V -T "artist=%artist%" -T "title=%title%" -T "album=%albumtitle%" -T "date=%year%" -T "tracknumber=%tracknr%" -T "genre=%genre%" %source%
TOC of the extracted CD
     Track |   Start  |  Length  | Start sector | End sector
    ---------------------------------------------------------
        1  |  0:00.00 | 29:09.58 |         0    |   131232
        2  | 29:09.58 | 14:19.62 |    131233    |   195719
        3  | 43:29.45 | 14:45.10 |    195720    |   262104
Track  1
     Filename D:\burn\Sonny Rollins - Complete Sonny Rollins In Japan (SHM-CD) (2018) (flac)\Disc 2\01 - Sonny Rollins - Sais.wav
     Pre-gap length  0:00:02.00
     Peak level 98.8 %
     Extraction speed 3.6 X
     Track quality 100.0 %
     Test CRC 92FBBC5F
     Copy CRC 92FBBC5F
     Track not present in AccurateRip database
     Copy OK
Track  2
     Filename D:\burn\Sonny Rollins - Complete Sonny Rollins In Japan (SHM-CD) (2018) (flac)\Disc 2\02 - Sonny Rollins - God Bless The Child.wav
     Peak level 83.2 %
     Extraction speed 2.0 X
     Track quality 100.0 %
     Test CRC C3DF8BE6
     Copy CRC C3DF8BE6
     Track not present in AccurateRip database
     Copy OK
Track  3
     Filename D:\burn\Sonny Rollins - Complete Sonny Rollins In Japan (SHM-CD) (2018) (flac)\Disc 2\03 - Sonny Rollins - Hold 'Em Joe.wav
     Peak level 98.8 %
     Extraction speed 2.1 X
     Track quality 99.9 %
     Test CRC 105B58CE
     Copy CRC 105B58CE
     Track not present in AccurateRip database
     Copy OK
None of the tracks are present in the AccurateRip database
No errors occurred
End of status report
---- CUETools DB Plugin V2.1.6
[CTDB TOCID: bHYd523dF0WSpc2TgK1ABF11pLI-] disk not present in database
Submit result: bHYd523dF0WSpc2TgK1ABF11pLI- has been uploaded
==== Log checksum 5F3BAFB013CC13399A26D49EB52EA16E37F324BAA964FF0792F1A7BCC8BAF9EA ====
 
Содержание индексной карты (.CUE) CD2
REM GENRE Jazz
REM DATE 1973
REM DISCID 1A0DA603
REM COMMENT "ExactAudioCopy v1.3"
CATALOG 4988002775835
PERFORMER "Sonny Rollins"
TITLE "Complete Sonny Rollins in Japan CD2"
FILE "01 - Sais.wav" WAVE
  TRACK 01 AUDIO
    TITLE "Sais"
    PERFORMER "Sonny Rollins"
    ISRC JPVI00805260
    INDEX 01 00:00:00
FILE "02 - God Bless the Child.wav" WAVE
  TRACK 02 AUDIO
    TITLE "God Bless the Child"
    PERFORMER "Sonny Rollins"
    ISRC JPVI00805270
    INDEX 01 00:00:00
FILE "03 - Hold 'em Joe.wav" WAVE
  TRACK 03 AUDIO
    TITLE "Hold 'em Joe"
    PERFORMER "Sonny Rollins"
    ISRC JPVI00805280
    INDEX 01 00:00:00
Приватный:
Нет (DHT включён)
Размер:
675.51 Мб (708,319,849 байт) » файлов: 23
Участники:
9 раздают, 1 качают (10 участников всего)
Внешние участники:
10 раздают, 3 качают (13 участников всего) [ Обновить ]
Скорость:
614.86 Кб/c 16.45 Кб/c
Нет сидеров - пишите личное сообщение M0p94ok. Не нравятся торренты? Участники группы Pro-jazz Club могут заказать прямую ссылку на скачивание из облака.
No seeders - write a personal message to M0p94ok. Don't like torrents? Members of Pro-jazz Club group can order a direct download link from the cloud.
00:46
76
Нет комментариев. Ваш будет первым!