Поиск

1969 Donald Byrd - Fancy Free (2017) {Blue Note, Universal UCCQ-9332} [CD]

1969 Donald Byrd - Fancy Free (2017) {Blue Note, Universal UCCQ-9332} [CD]
Битрейт аудио:
lossless
Треклист:

01. Fancy Free (Byrd) - 12:07
02. I Love the Girl (Byrd) - 8:48
03. The Uptowner (Farber) - 9:17
04. Weasil (Hendricks) - 9:00

Лог создания рипа
Exact Audio Copy V1.3 from 2. September 2016

EAC extraction logfile from 11. November 2018, 18:51

Donald Byrd / Fancy Free (2017 SHM-CD)

Used drive  : HL-DT-STBD-RE  WH14NS40   Adapter: 1  ID: 1

Read mode               : Secure
Utilize accurate stream : Yes
Defeat audio cache      : Yes
Make use of C2 pointers : No

Read offset correction                      : 6
Overread into Lead-In and Lead-Out          : No
Fill up missing offset samples with silence : Yes
Delete leading and trailing silent blocks   : No
Null samples used in CRC calculations       : Yes
Used interface                              : Native Win32 interface for Win NT & 2000
Gap handling                                : Appended to previous track

Used output format              : User Defined Encoder
Selected bitrate                : 896 kBit/s
Quality                         : High
Add ID3 tag                     : No
Command line compressor         : C:\Program Files (x86)\Exact Audio Copy\Flac\flac.exe
Additional command line options : -8 -V -T "artist=%artist%" -T "title=%title%" -T "album=%albumtitle%" -T "date=%year%" -T "tracknumber=%tracknr%" -T "genre=%genre%" %source%

TOC of the extracted CD

     Track |   Start  |  Length  | Start sector | End sector
    ---------------------------------------------------------
        1  |  0:00.00 | 12:07.18 |         0    |    54542
        2  | 12:07.18 |  8:48.33 |     54543    |    94175
        3  | 20:55.51 |  9:16.55 |     94176    |   135930
        4  | 30:12.31 |  9:00.30 |    135931    |   176460

Track  1

     Filename D:\burn\Donald Byrd - Fancy Free (2017 SHM-CD) (1969) (flac)\01 - Donald Byrd - Fancy Free.wav

     Pre-gap length  0:00:02.00

     Peak level 97.9 %
     Extraction speed 3.1 X
     Track quality 100.0 %
     Test CRC 638FFD7C
     Copy CRC 638FFD7C
     Accurately ripped (confidence 3)  [7E63A5A4]  (AR v2)
     Copy OK

Track  2

     Filename D:\burn\Donald Byrd - Fancy Free (2017 SHM-CD) (1969) (flac)\02 - Donald Byrd - I Love The Girl.wav

     Pre-gap length  0:00:02.23

     Peak level 100.0 %
     Extraction speed 2.7 X
     Track quality 100.0 %
     Test CRC F54CECE8
     Copy CRC F54CECE8
     Accurately ripped (confidence 3)  [B23305B8]  (AR v2)
     Copy OK

Track  3

     Filename D:\burn\Donald Byrd - Fancy Free (2017 SHM-CD) (1969) (flac)\03 - Donald Byrd - The Uptowner.wav

     Pre-gap length  0:00:02.23

     Peak level 97.1 %
     Extraction speed 1.6 X
     Track quality 99.9 %
     Test CRC 29541625
     Copy CRC 29541625
     Accurately ripped (confidence 3)  [5B0B3F6F]  (AR v2)
     Copy OK

Track  4

     Filename D:\burn\Donald Byrd - Fancy Free (2017 SHM-CD) (1969) (flac)\04 - Donald Byrd - Weasil.wav

     Pre-gap length  0:00:02.23

     Peak level 97.4 %
     Extraction speed 1.9 X
     Track quality 100.0 %
     Test CRC DD18A503
     Copy CRC DD18A503
     Accurately ripped (confidence 3)  [DD6CD939]  (AR v2)
     Copy OK

All tracks accurately ripped

No errors occurred

End of status report

---- CUETools DB Plugin V2.1.6

[CTDB TOCID: UoiNBgzqqutVOQceMqoU_5oVpT4-] found
Submit result: UoiNBgzqqutVOQceMqoU_5oVpT4- has been confirmed
Track | CTDB Status
  1   | (7/7) Accurately ripped
  2   | (7/7) Accurately ripped
  3   | (7/7) Accurately ripped
  4   | (7/7) Accurately ripped

==== Log checksum 9EF2CE4D2E945BA3B9DEE66E535763B5C383D0B7C4B9D983C8B3BA243D2BF25B ====
Содержание индексной карты (.CUE)
REM GENRE Jazz
REM DATE 1969
REM DISCID 31093004
REM COMMENT "ExactAudioCopy v1.3"
PERFORMER "Donald Byrd"
TITLE "Fancy Free"
FILE "01 - Fancy Free.wav" WAVE
  TRACK 01 AUDIO
    TITLE "Fancy Free"
    PERFORMER "Donald Byrd"
    ISRC USBN29300192
    INDEX 01 00:00:00
  TRACK 02 AUDIO
    TITLE "I Love the Girl"
    PERFORMER "Donald Byrd"
    ISRC USBN29300211
    INDEX 00 12:04:70
FILE "02 - I Love the Girl.wav" WAVE
    INDEX 01 00:00:00
  TRACK 03 AUDIO
    TITLE "The Uptowner"
    PERFORMER "Donald Byrd"
    ISRC USBN29300455
    INDEX 00 08:46:10
FILE "03 - The Uptowner.wav" WAVE
    INDEX 01 00:00:00
  TRACK 04 AUDIO
    TITLE "Weasil"
    PERFORMER "Donald Byrd"
    ISRC USBN29300200
    INDEX 00 09:14:32
FILE "04 - Weasil.wav" WAVE
    INDEX 01 00:00:00
Лог проверки качества
[CUETools log; Date: 20.01.2019 16:54:34; Version: 2.1.6]
[CTDB TOCID: UoiNBgzqqutVOQceMqoU_5oVpT4-] found.
Track | CTDB Status
  1   | (9/9) Accurately ripped
  2   | (9/9) Accurately ripped
  3   | (9/9) Accurately ripped
  4   | (9/9) Accurately ripped
[AccurateRip ID: 00070937-001bbc2c-31093004] found.
Track   [  CRC   |   V2   ] Status
 01     [a3e8265e|7e63a5a4] (0+3/3) Accurately ripped
 02     [65ebb54a|b23305b8] (0+3/3) Accurately ripped
 03     [f23a23e1|5b0b3f6f] (0+3/3) Accurately ripped
 04     [96ba6bf0|dd6cd939] (0+3/3) Accurately ripped

Track Peak [ CRC32  ] [W/O NULL] [  LOG   ]
 --  100,0 [89CBF3E2] [9A3DE5D7]
 01   97,9 [638FFD7C] [40FAE373]   CRC32
 02  100,0 [F54CECE8] [FC80D5DA]   CRC32
 03   97,1 [29541625] [BCD72E9C]   CRC32
 04   97,4 [DD18A503] [E36981FE]   CRC32
Приватный:
Нет (DHT включён)
Размер:
227.57 Мб (238,625,937 байт) » файлов: 12
Участники:
0 раздают, 0 качают (0 участников всего)
Внешние участники:
9 раздают, 3 качают (12 участников всего) [ Обновить ]
Для участников группы Pro-jazz Club: никого нет на раздаче - пишите ЛС M0p94ok
For Pro-jazz Club group members: no seeders - write PM to M0p94ok
01:02
91
Нет комментариев. Ваш будет первым!