Поиск

1969 Donald Byrd - Fancy Free (1993) {Blue Note CDP 0777 7 89796 2 3} [CD]

1969 Donald Byrd - Fancy Free (1993) {Blue Note CDP 0777 7 89796 2 3} [CD]
Битрейт аудио:
lossless
Треклист:

01. Fancy Free (Byrd) - 12:07
02. I Love the Girl (Byrd) - 8:48
03. The Uptowner (Farber) - 9:17
04. Weasil (Hendricks) - 9:01

Лог создания рипа
Exact Audio Copy V0.99 prebeta 5 from 4. May 2009

EAC extraction logfile from 22. May 2010, 8:14

Donald Byrd / Fancy Free

Used drive  : Optiarc DVD RW AD-5170A   Adapter: 0  ID: 1

Read mode               : Secure
Utilize accurate stream : Yes
Defeat audio cache      : Yes
Make use of C2 pointers : No

Read offset correction                      : 48
Overread into Lead-In and Lead-Out          : No
Fill up missing offset samples with silence : Yes
Delete leading and trailing silent blocks   : No
Null samples used in CRC calculations       : Yes
Used interface                              : Installed external ASPI interface
Gap handling                                : Appended to previous track

Used output format              : User Defined Encoder
Selected bitrate                : 128 kBit/s
Quality                         : High
Add ID3 tag                     : No
Command line compressor         : C:\Programmi\Exact Audio Copy\Flac\flac.exe
Additional command line options : -8 -V -T "artist=%a" -T "title=%t" -T "album=%g" -T "date=%y" -T "tracknumber=%n" -T "genre=%m" %s

TOC of the extracted CD

     Track |   Start  |  Length  | Start sector | End sector
    ---------------------------------------------------------
        1  |  0:00.00 | 12:07.12 |         0    |    54536
        2  | 12:07.12 |  8:48.15 |     54537    |    94151
        3  | 20:55.27 |  9:16.68 |     94152    |   135919
        4  | 30:12.20 |  9:00.47 |    135920    |   176466

Track  1

     Filename E:\WCD\Donald Byrd - Fancy Free (1969)\Music\01 - Fancy Free.wav

     Pre-gap length  0:00:02.00

     Peak level 98.1 %
     Track quality 100.0 %
     Test CRC 1E129EA8
     Copy CRC 1E129EA8
     Cannot be verified as accurate (confidence 7)  [2C12C78E], AccurateRip returned [7D58E7E7]
     Copy OK

Track  2

     Filename E:\WCD\Donald Byrd - Fancy Free (1969)\Music\02 - I Love The Girl.wav

     Pre-gap length  0:00:03.72

     Peak level 88.3 %
     Track quality 100.0 %
     Test CRC E17CB0FD
     Copy CRC E17CB0FD
     Cannot be verified as accurate (confidence 7)  [36228735], AccurateRip returned [6D5E5EDE]
     Copy OK

Track  3

     Filename E:\WCD\Donald Byrd - Fancy Free (1969)\Music\03 - The Uptowner.wav

     Pre-gap length  0:00:01.65

     Peak level 95.9 %
     Track quality 100.0 %
     Test CRC E59A3876
     Copy CRC E59A3876
     Cannot be verified as accurate (confidence 7)  [D2DAF240], AccurateRip returned [DF8EE500]
     Copy OK

Track  4

     Filename E:\WCD\Donald Byrd - Fancy Free (1969)\Music\04 - Weasil.wav

     Pre-gap length  0:00:02.05

     Peak level 96.8 %
     Track quality 99.9 %
     Test CRC 2DEC328A
     Copy CRC 2DEC328A
     Cannot be verified as accurate (confidence 7)  [0468089D], AccurateRip returned [F8C16331]
     Copy OK

No tracks could be verified as accurate
You may have a different pressing from the one(s) in the database

No errors occurred

End of status report
Содержание индексной карты (.CUE)
REM GENRE Jazz
REM DATE 1969
REM DISCID 31093004
REM COMMENT "ExactAudioCopy v0.99pb5"
PERFORMER "Donald Byrd"
TITLE "Fancy Free"
FILE "01 - Fancy Free.wav" WAVE
  TRACK 01 AUDIO
    TITLE "Fancy Free"
    PERFORMER "Donald Byrd"
    INDEX 01 00:00:00
  TRACK 02 AUDIO
    TITLE "I Love the Girl"
    PERFORMER "Donald Byrd"
    INDEX 00 12:03:15
FILE "02 - I Love the Girl.wav" WAVE
    INDEX 01 00:00:00
  TRACK 03 AUDIO
    TITLE "The Uptowner"
    PERFORMER "Donald Byrd"
    INDEX 00 08:46:25
FILE "03 - The Uptowner.wav" WAVE
    INDEX 01 00:00:00
  TRACK 04 AUDIO
    TITLE "Weasil"
    PERFORMER "Donald Byrd"
    INDEX 00 09:14:63
FILE "04 - Weasil.wav" WAVE
    INDEX 01 00:00:00
Лог проверки качества
[CUETools log; Date: 20.01.2019 17:09:24; Version: 2.1.6]
[CTDB TOCID: ygDUBiwzUrZn2cB_C.8D_mjxjNU-] found.
Track | CTDB Status
  1   | (25/25) Accurately ripped
  2   | (25/25) Accurately ripped
  3   | (25/25) Accurately ripped
  4   | (25/25) Accurately ripped
[AccurateRip ID: 00070914-001bbbca-31093004] found.
Track   [  CRC   |   V2   ] Status
 01     [2c12c78e|1d76f349] (03+04/27) Accurately ripped
 02     [36228735|9996023f] (03+04/27) Accurately ripped
 03     [d2daf240|4597d80f] (03+04/27) Accurately ripped
 04     [0468089d|ca28fb40] (03+04/27) Accurately ripped
Offsetted by 27:
 01     [7d58e7e7] (07/27) Accurately ripped
 02     [6d5e5ede] (07/27) Accurately ripped
 03     [df8ee500] (07/27) Accurately ripped
 04     [f8c16331] (07/27) Accurately ripped

Track Peak [ CRC32  ] [W/O NULL] [  LOG   ]
 --   98,1 [AAF2B910] [C14F9E7C]
 01   98,1 [1E129EA8] [A09F924A]   CRC32
 02   88,3 [E17CB0FD] [65EFD1AA]   CRC32
 03   95,9 [E59A3876] [39C08522]   CRC32
 04   96,8 [2DEC328A] [22DED19F]   CRC32
Скачивание доступно после регистрации!!
Приватный:
Нет (DHT включён)
Размер:
229.63 Мб (240,782,046 байт) » файлов: 13
Участники:
3 раздают, 0 качают (3 участников всего)
Внешние участники:
--- [ Обновить ]
01:13
11
Нет комментариев. Ваш будет первым!