Поиск

2018 Kiyo Sen - Organizer {Elec ELFA-1816} [CD]

2018 Kiyo Sen - Organizer {Elec ELFA-1816} [CD]
Битрейт аудио:
lossless
Треклист:

01. Fly (Otaka) - 5:09
02. Enamel Doll (Otaka) - 5:20
03. Altered Destination (Yabori) - 7:50
04. Tiki Tiki (Otaka) - 5:20
05. Catty Angel (Otaka) - 5:56
06. Life Various (Otaka) - 4:28
07. Potos (Otaka) - 5:58
08. Come On Over (Kawaguchi) - 5:35
09. Higurashi (Yabori) - 6:02

Лог создания рипа
Exact Audio Copy V1.3 from 2. September 2016

EAC extraction logfile from 31. December 2018, 17:30

KIYO*SEN / organizer

Used drive  : ASUS    DRW-24B1ST   c   Adapter: 1  ID: 0

Read mode               : Secure
Utilize accurate stream : Yes
Defeat audio cache      : Yes
Make use of C2 pointers : No

Read offset correction                      : 6
Overread into Lead-In and Lead-Out          : No
Fill up missing offset samples with silence : Yes
Delete leading and trailing silent blocks   : No
Null samples used in CRC calculations       : Yes
Used interface                              : Native Win32 interface for Win NT & 2000
Gap handling                                : Appended to previous track

Used output format              : User Defined Encoder
Selected bitrate                : 1024 kBit/s
Quality                         : High
Add ID3 tag                     : No
Command line compressor         : C:\Program Files (x86)\Exact Audio Copy\Flac\flac.exe
Additional command line options : -8 -V -T "ARTIST=%artist%" -T "TITLE=%title%" -T "ALBUM=%albumtitle%" -T "DATE=%year%" -T "TRACKNUMBER=%tracknr%" -T "GENRE=%genre%" -T "PERFORMER=%albuminterpret%" -T "COMPOSER=%composer%" %haslyrics%--tag-from-file=LYRICS="%lyricsfile%"%haslyrics% -T "ALBUMARTIST=%albumartist%" -T "DISCNUMBER=%cdnumber%" -T "TOTALDISCS=%totalcds%" -T "TOTALTRACKS=%numtracks%" -T "COMMENT=%comment%" %source% -o %dest%

TOC of the extracted CD

     Track |   Start  |  Length  | Start sector | End sector
    ---------------------------------------------------------
        1  |  0:00.00 |  5:09.18 |         0    |    23192
        2  |  5:09.18 |  5:19.52 |     23193    |    47169
        3  | 10:28.70 |  7:49.39 |     47170    |    82383
        4  | 18:18.34 |  5:20.05 |     82384    |   106388
        5  | 23:38.39 |  5:56.30 |    106389    |   133118
        6  | 29:34.69 |  4:28.08 |    133119    |   153226
        7  | 34:03.02 |  5:58.21 |    153227    |   180097
        8  | 40:01.23 |  5:35.18 |    180098    |   205240
        9  | 45:36.41 |  6:01.60 |    205241    |   232375

Track  1

     Filename F:\EAC Rips\KIYOSEN - organizer [FLAC]\01 - FLY.wav

     Pre-gap length  0:00:02.00

     Peak level 98.9 %
     Extraction speed 2.0 X
     Track quality 100.0 %
     Test CRC A83F06CC
     Copy CRC A83F06CC
     Accurately ripped (confidence 1)  [ACADB39F]  (AR v2)
     Copy OK

Track  2

     Filename F:\EAC Rips\KIYOSEN - organizer [FLAC]\02 - Enamel Doll.wav

     Pre-gap length  0:00:01.00

     Peak level 98.9 %
     Extraction speed 1.8 X
     Track quality 99.9 %
     Test CRC 84014E0A
     Copy CRC 84014E0A
     Accurately ripped (confidence 1)  [8DE94ACE]  (AR v2)
     Copy OK

Track  3

     Filename F:\EAC Rips\KIYOSEN - organizer [FLAC]\03 - Altered Destination.wav

     Pre-gap length  0:00:02.98

     Peak level 100.0 %
     Extraction speed 2.7 X
     Track quality 100.0 %
     Test CRC 64856EB9
     Copy CRC 64856EB9
     Accurately ripped (confidence 1)  [3C75C2A8]  (AR v2)
     Copy OK

Track  4

     Filename F:\EAC Rips\KIYOSEN - organizer [FLAC]\04 - Tiki Tiki.wav

     Pre-gap length  0:00:02.00

     Peak level 98.9 %
     Extraction speed 2.8 X
     Track quality 100.0 %
     Test CRC FF144821
     Copy CRC FF144821
     Accurately ripped (confidence 1)  [67295CCB]  (AR v2)
     Copy OK

Track  5

     Filename F:\EAC Rips\KIYOSEN - organizer [FLAC]\05 - Catty Angel.wav

     Pre-gap length  0:00:02.00

     Peak level 98.9 %
     Extraction speed 3.1 X
     Track quality 100.0 %
     Test CRC D15FA3EA
     Copy CRC D15FA3EA
     Accurately ripped (confidence 1)  [E1898D24]  (AR v2)
     Copy OK

Track  6

     Filename F:\EAC Rips\KIYOSEN - organizer [FLAC]\06 - Life Various.wav

     Pre-gap length  0:00:02.00

     Peak level 98.9 %
     Extraction speed 3.1 X
     Track quality 100.0 %
     Test CRC 8AB55E0E
     Copy CRC 8AB55E0E
     Accurately ripped (confidence 1)  [2742A65F]  (AR v2)
     Copy OK

Track  7

     Filename F:\EAC Rips\KIYOSEN - organizer [FLAC]\07 - POTOS.wav

     Pre-gap length  0:00:01.00

     Peak level 98.9 %
     Extraction speed 3.4 X
     Track quality 100.0 %
     Test CRC 6877E525
     Copy CRC 6877E525
     Accurately ripped (confidence 1)  [979406CA]  (AR v2)
     Copy OK

Track  8

     Filename F:\EAC Rips\KIYOSEN - organizer [FLAC]\08 - Come On Over.wav

     Pre-gap length  0:00:02.98

     Peak level 98.9 %
     Extraction speed 3.5 X
     Track quality 100.0 %
     Test CRC C0133E9E
     Copy CRC C0133E9E
     Accurately ripped (confidence 1)  [C327EC36]  (AR v2)
     Copy OK

Track  9

     Filename F:\EAC Rips\KIYOSEN - organizer [FLAC]\09 - Higurashi.wav

     Pre-gap length  0:00:02.00

     Peak level 98.9 %
     Extraction speed 3.7 X
     Track quality 100.0 %
     Test CRC C16CB49B
     Copy CRC C16CB49B
     Accurately ripped (confidence 1)  [815CA8E6]  (AR v2)
     Copy OK

All tracks accurately ripped

No errors occurred

End of status report

---- CUETools DB Plugin V2.1.6

[CTDB TOCID: .nzMQ6si1G2.a9WSr.QKnqGA.aU-] found
Submit result: .nzMQ6si1G2.a9WSr.QKnqGA.aU- has been confirmed
Track | CTDB Status
  1   | (15/15) Accurately ripped
  2   | (15/15) Accurately ripped
  3   | (15/15) Accurately ripped
  4   | (15/15) Accurately ripped
  5   | (15/15) Accurately ripped
  6   | (15/15) Accurately ripped
  7   | (15/15) Accurately ripped
  8   | (15/15) Accurately ripped
  9   | (15/15) Accurately ripped

==== Log checksum D5D0B061684AE8D14CB62D014454BDCDB14A0B8F672C138785B26D3DE0CF5B27 ====
Содержание индексной карты (.CUE)
REM GENRE Fusion
REM DATE 2018
REM DISCID 560C1A09
REM COMMENT "ExactAudioCopy v1.3"
CATALOG 4580204761960
PERFORMER "KIYO'SEN"
TITLE "Organizer"
FILE "01 - Fly.wav" WAVE
  TRACK 01 AUDIO
    TITLE "Fly"
    PERFORMER "KIYO'SEN"
    ISRC JPZ921806744
    INDEX 01 00:00:00
  TRACK 02 AUDIO
    TITLE "Enamel Doll"
    PERFORMER "KIYO'SEN"
    ISRC JPZ921806745
    INDEX 00 05:08:18
FILE "02 - Enamel Doll.wav" WAVE
    INDEX 01 00:00:00
  TRACK 03 AUDIO
    TITLE "Altered Destination"
    PERFORMER "KIYO'SEN"
    ISRC JPZ921806746
    INDEX 00 05:16:53
FILE "03 - Altered Destination.wav" WAVE
    INDEX 01 00:00:00
  TRACK 04 AUDIO
    TITLE "Tiki Tiki"
    PERFORMER "KIYO'SEN"
    ISRC JPZ921806747
    INDEX 00 07:47:39
FILE "04 - Tiki Tiki.wav" WAVE
    INDEX 01 00:00:00
  TRACK 05 AUDIO
    TITLE "Catty Angel"
    PERFORMER "KIYO'SEN"
    ISRC JPZ921806748
    INDEX 00 05:18:05
FILE "05 - Catty Angel.wav" WAVE
    INDEX 01 00:00:00
  TRACK 06 AUDIO
    TITLE "Life Various"
    PERFORMER "KIYO'SEN"
    ISRC JPZ921806749
    INDEX 00 05:54:30
FILE "06 - Life Various.wav" WAVE
    INDEX 01 00:00:00
  TRACK 07 AUDIO
    TITLE "Potos"
    PERFORMER "KIYO'SEN"
    ISRC JPZ921806750
    INDEX 00 04:27:08
FILE "07 - Potos.wav" WAVE
    INDEX 01 00:00:00
  TRACK 08 AUDIO
    TITLE "Come On Over"
    PERFORMER "KIYO'SEN"
    ISRC JPZ921806751
    INDEX 00 05:55:22
FILE "08 - Come On Over.wav" WAVE
    INDEX 01 00:00:00
  TRACK 09 AUDIO
    TITLE "Higurashi"
    PERFORMER "KIYO'SEN"
    ISRC JPZ921806752
    INDEX 00 05:33:18
FILE "09 - Higurashi.wav" WAVE
    INDEX 01 00:00:00
Лог проверки качества
[CUETools log; Date: 20.01.2019 18:57:35; Version: 2.1.6]
[CTDB TOCID: .nzMQ6si1G2.a9WSr.QKnqGA.aU-] found.
Track | CTDB Status
  1   | (16/16) Accurately ripped
  2   | (16/16) Accurately ripped
  3   | (16/16) Accurately ripped
  4   | (16/16) Accurately ripped
  5   | (16/16) Accurately ripped
  6   | (16/16) Accurately ripped
  7   | (16/16) Accurately ripped
  8   | (16/16) Accurately ripped
  9   | (16/16) Accurately ripped
[AccurateRip ID: 0011bfbd-008231aa-560c1a09] found.
Track   [  CRC   |   V2   ] Status
 01     [f83d1889|acadb39f] (0+1/1) Accurately ripped
 02     [3d057cee|8de94ace] (0+1/1) Accurately ripped
 03     [f49ff85a|3c75c2a8] (0+1/1) Accurately ripped
 04     [82bc5f49|67295ccb] (0+1/1) Accurately ripped
 05     [45da065c|e1898d24] (0+1/1) Accurately ripped
 06     [4238341a|2742a65f] (0+1/1) Accurately ripped
 07     [2523d667|979406ca] (0+1/1) Accurately ripped
 08     [7084f587|c327ec36] (0+1/1) Accurately ripped
 09     [17443f97|815ca8e6] (0+1/1) Accurately ripped

Track Peak [ CRC32  ] [W/O NULL] [  LOG   ]
 --  100,0 [24ACD160] [55C42135]
 01   98,9 [A83F06CC] [162CD8FD]   CRC32
 02   98,9 [84014E0A] [00B2E921]   CRC32
 03  100,0 [64856EB9] [0A4A111D]   CRC32
 04   98,9 [FF144821] [38979DEF]   CRC32
 05   98,9 [D15FA3EA] [E90832F3]   CRC32
 06   98,9 [8AB55E0E] [70728B7E]   CRC32
 07   98,9 [6877E525] [0610B8F1]   CRC32
 08   98,9 [C0133E9E] [3251A237]   CRC32
 09   98,9 [C16CB49B] [5FA3F5BF]   CRC32
Приватный:
Нет (DHT включён)
Размер:
349.38 Мб (366,348,686 байт) » файлов: 23
Участники:
0 раздают, 1 качают (1 участников всего)
Внешние участники:
--- [ Обновить ]
Никого нет на раздаче - пишите личное сообщение M0p94ok
No seeders - write personal message to M0p94ok
17:54
51
Нет комментариев. Ваш будет первым!