Поиск

2018 Kandace Springs - Indigo {Blue Note 00602567218791} [CD]

2018 Kandace Springs - Indigo {Blue Note 00602567218791} [CD]
Битрейт аудио:
lossless
Треклист:

01. Don't Need the Real Thing (3:26)
02. Breakdown (3:19)
03. Fix Me (4:34)
04. Indigo (Pt. 1) (0:33)
05. Piece of Me (5:10)
06. 6 8 (5:33)
07. Indigo (Pt. 2) (0:34)
08. People Make the World Go 'Round (5:04)
09. Unsophisticated (feat. Roy Hargrove) (3:27)
10. Black Orchid (3:29)
11. Love Sucks (3:55)
12. The First Time Ever I Saw Your Face (5:40)
13. Simple Things (feat. Scat Springs) (3:42)

Жанр: Vocal Jazz
Носитель: CD
Страна-производитель диска (релиза): EU
Год издания: 2018
Издатель (лейбл): Blue Note Records
Номер по каталогу: 00602567218791
Страна исполнителя (группы): США
Аудиокодек: FLAC (*.flac)
Тип рипа: tracks+.cue
Битрейт аудио: lossless
Продолжительность: 00:48:26
Источник: secretsquirrel
Наличие сканов в содержимом раздачи: нет

Лог создания рипа
X Lossless Decoder version 20170729 (150.3)

XLD extraction logfile from 2019-01-17 16:37:42 -0700

Kandace Springs / Indigo

Used drive : HL-DT-ST DVDRAM GP60NB50 (revision PE00)
Media type : Pressed CD

Ripper mode             : XLD Secure Ripper
Disable audio cache     : OK for the drive with a cache less than 1375KiB
Make use of C2 pointers : NO
Read offset correction  : 6
Max retry count         : 20
Gap status              : Analyzed, Appended

TOC of the extracted CD
     Track |   Start  |  Length  | Start sector | End sector
    ---------------------------------------------------------
        1  | 00:00:00 | 03:26:00 |         0    |    15449
        2  | 03:26:00 | 03:18:70 |     15450    |    30369
        3  | 06:44:70 | 04:33:72 |     30370    |    50916
        4  | 11:18:67 | 00:33:23 |     50917    |    53414
        5  | 11:52:15 | 05:09:55 |     53415    |    76644
        6  | 17:01:70 | 05:33:14 |     76645    |   101633
        7  | 22:35:09 | 00:33:39 |    101634    |   104147
        8  | 23:08:48 | 05:03:38 |    104148    |   126910
        9  | 28:12:11 | 03:27:13 |    126911    |   142448
       10  | 31:39:24 | 03:29:18 |    142449    |   158141
       11  | 35:08:42 | 03:55:12 |    158142    |   175778
       12  | 39:03:54 | 05:40:22 |    175779    |   201300
       13  | 44:44:01 | 03:42:02 |    201301    |   217952

AccurateRip Summary (DiscID: 0016340a-00e0040c-9a0b5a0d)
    Track 01 : OK (v2, confidence 13/13)
    Track 02 : OK (v2, confidence 13/13)
    Track 03 : OK (v2, confidence 13/13)
    Track 04 : OK (v2, confidence 13/13)
    Track 05 : OK (v2, confidence 13/13)
    Track 06 : OK (v2, confidence 13/13)
    Track 07 : OK (v2, confidence 13/13)
    Track 08 : OK (v2, confidence 13/13)
    Track 09 : OK (v2, confidence 13/13)
    Track 10 : OK (v2, confidence 13/13)
    Track 11 : OK (v2, confidence 13/13)
    Track 12 : OK (v2, confidence 13/13)
    Track 13 : OK (v2, confidence 13/13)
        ->All tracks accurately ripped.

All Tracks
    Album gain               : -7.34 dB
    Peak                     : 1.000000
    Statistics
        Read error                           : 0
        Jitter error (maybe fixed)           : 0
        Retry sector count                   : 0
        Damaged sector count                 : 0

Track 01
    Filename : /Users/olriksen/Desktop/What Upload/Kandace Springs - Indigo (2018) [FLAC]/01 Don't Need The Real Thing.flac
    Pre-gap length : 00:02:00

    Track gain               : -4.01 dB
    Peak                     : 0.996918
    CRC32 hash (test run)    : A7429B88
    CRC32 hash               : A7429B88
    CRC32 hash (skip zero)   : 4A8C587F
    AccurateRip v1 signature : E9DDA639
    AccurateRip v2 signature : 0B4E38B4
        ->Accurately ripped (v2, confidence 13/13)
    Statistics
        Read error                           : 0
        Jitter error (maybe fixed)           : 0
        Retry sector count                   : 0
        Damaged sector count                 : 0

Track 02
    Filename : /Users/olriksen/Desktop/What Upload/Kandace Springs - Indigo (2018) [FLAC]/02 Breakdown.flac

    Track gain               : -7.24 dB
    Peak                     : 1.000000
    CRC32 hash (test run)    : BC05BB10
    CRC32 hash               : BC05BB10
    CRC32 hash (skip zero)   : B8803099
    AccurateRip v1 signature : 6E8875A8
    AccurateRip v2 signature : 8B12E42F
        ->Accurately ripped (v2, confidence 13/13)
    Statistics
        Read error                           : 0
        Jitter error (maybe fixed)           : 0
        Retry sector count                   : 0
        Damaged sector count                 : 0

Track 03
    Filename : /Users/olriksen/Desktop/What Upload/Kandace Springs - Indigo (2018) [FLAC]/03 Fix Me.flac

    Track gain               : -7.92 dB
    Peak                     : 1.000000
    CRC32 hash (test run)    : 4F1B3D6E
    CRC32 hash               : 4F1B3D6E
    CRC32 hash (skip zero)   : 66B2EDE3
    AccurateRip v1 signature : A60955CF
    AccurateRip v2 signature : 184415AC
        ->Accurately ripped (v2, confidence 13/13)
    Statistics
        Read error                           : 0
        Jitter error (maybe fixed)           : 0
        Retry sector count                   : 0
        Damaged sector count                 : 0

Track 04
    Filename : /Users/olriksen/Desktop/What Upload/Kandace Springs - Indigo (2018) [FLAC]/04 Indigo (Pt.1).flac

    Track gain               : -7.40 dB
    Peak                     : 0.970306
    CRC32 hash (test run)    : 4D9F46F9
    CRC32 hash               : 4D9F46F9
    CRC32 hash (skip zero)   : B4D35F50
    AccurateRip v1 signature : E0DFC8CC
    AccurateRip v2 signature : C4EC3E8C
        ->Accurately ripped (v2, confidence 13/13)
    Statistics
        Read error                           : 0
        Jitter error (maybe fixed)           : 0
        Retry sector count                   : 0
        Damaged sector count                 : 0

Track 05
    Filename : /Users/olriksen/Desktop/What Upload/Kandace Springs - Indigo (2018) [FLAC]/05 Piece Of Me.flac

    Track gain               : -7.12 dB
    Peak                     : 1.000000
    CRC32 hash (test run)    : ACA037ED
    CRC32 hash               : ACA037ED
    CRC32 hash (skip zero)   : 5B86C77B
    AccurateRip v1 signature : 58A0E13F
    AccurateRip v2 signature : BBCF4524
        ->Accurately ripped (v2, confidence 13/13)
    Statistics
        Read error                           : 0
        Jitter error (maybe fixed)           : 0
        Retry sector count                   : 0
        Damaged sector count                 : 0

Track 06
    Filename : /Users/olriksen/Desktop/What Upload/Kandace Springs - Indigo (2018) [FLAC]/06 6 8.flac

    Track gain               : -3.63 dB
    Peak                     : 1.000000
    CRC32 hash (test run)    : F5201E86
    CRC32 hash               : F5201E86
    CRC32 hash (skip zero)   : 99842CD4
    AccurateRip v1 signature : A6A137AA
    AccurateRip v2 signature : EFE4938F
        ->Accurately ripped (v2, confidence 13/13)
    Statistics
        Read error                           : 0
        Jitter error (maybe fixed)           : 0
        Retry sector count                   : 0
        Damaged sector count                 : 0

Track 07
    Filename : /Users/olriksen/Desktop/What Upload/Kandace Springs - Indigo (2018) [FLAC]/07 Indigo (Pt. 2).flac

    Track gain               : -7.86 dB
    Peak                     : 0.927643
    CRC32 hash (test run)    : 5817842C
    CRC32 hash               : 5817842C
    CRC32 hash (skip zero)   : 9B74D930
    AccurateRip v1 signature : 503B779A
    AccurateRip v2 signature : 27C43341
        ->Accurately ripped (v2, confidence 13/13)
    Statistics
        Read error                           : 0
        Jitter error (maybe fixed)           : 0
        Retry sector count                   : 0
        Damaged sector count                 : 0

Track 08
    Filename : /Users/olriksen/Desktop/What Upload/Kandace Springs - Indigo (2018) [FLAC]/08 People Make The World Go 'Round.flac

    Track gain               : -7.29 dB
    Peak                     : 0.999969
    CRC32 hash (test run)    : 9FD216AE
    CRC32 hash               : 9FD216AE
    CRC32 hash (skip zero)   : 04A84408
    AccurateRip v1 signature : 76C7A9D7
    AccurateRip v2 signature : ED5B7805
        ->Accurately ripped (v2, confidence 13/13)
    Statistics
        Read error                           : 0
        Jitter error (maybe fixed)           : 0
        Retry sector count                   : 0
        Damaged sector count                 : 0

Track 09
    Filename : /Users/olriksen/Desktop/What Upload/Kandace Springs - Indigo (2018) [FLAC]/09 Unsophisticated.flac

    Track gain               : -7.04 dB
    Peak                     : 1.000000
    CRC32 hash (test run)    : 01F91E2E
    CRC32 hash               : 01F91E2E
    CRC32 hash (skip zero)   : 0A104FB2
    AccurateRip v1 signature : 08D518DE
    AccurateRip v2 signature : BBB642F2
        ->Accurately ripped (v2, confidence 13/13)
    Statistics
        Read error                           : 0
        Jitter error (maybe fixed)           : 0
        Retry sector count                   : 0
        Damaged sector count                 : 0

Track 10
    Filename : /Users/olriksen/Desktop/What Upload/Kandace Springs - Indigo (2018) [FLAC]/10 Black Orchid.flac

    Track gain               : -7.00 dB
    Peak                     : 1.000000
    CRC32 hash (test run)    : 0B9CDFE8
    CRC32 hash               : 0B9CDFE8
    CRC32 hash (skip zero)   : FF1451BE
    AccurateRip v1 signature : 87F251C9
    AccurateRip v2 signature : 9A7C9C67
        ->Accurately ripped (v2, confidence 13/13)
    Statistics
        Read error                           : 0
        Jitter error (maybe fixed)           : 0
        Retry sector count                   : 0
        Damaged sector count                 : 0

Track 11
    Filename : /Users/olriksen/Desktop/What Upload/Kandace Springs - Indigo (2018) [FLAC]/11 Love Sucks.flac

    Track gain               : -8.35 dB
    Peak                     : 0.981476
    CRC32 hash (test run)    : 9164D6ED
    CRC32 hash               : 9164D6ED
    CRC32 hash (skip zero)   : F4C464AC
    AccurateRip v1 signature : 9AE7340C
    AccurateRip v2 signature : EC6AD756
        ->Accurately ripped (v2, confidence 13/13)
    Statistics
        Read error                           : 0
        Jitter error (maybe fixed)           : 0
        Retry sector count                   : 0
        Damaged sector count                 : 0

Track 12
    Filename : /Users/olriksen/Desktop/What Upload/Kandace Springs - Indigo (2018) [FLAC]/12 The First Time Ever I Saw Your Face.flac

    Track gain               : -7.96 dB
    Peak                     : 1.000000
    CRC32 hash (test run)    : 80384511
    CRC32 hash               : 80384511
    CRC32 hash (skip zero)   : 6E7BE49F
    AccurateRip v1 signature : 7633CB8E
    AccurateRip v2 signature : C0610E38
        ->Accurately ripped (v2, confidence 13/13)
    Statistics
        Read error                           : 0
        Jitter error (maybe fixed)           : 0
        Retry sector count                   : 0
        Damaged sector count                 : 0

Track 13
    Filename : /Users/olriksen/Desktop/What Upload/Kandace Springs - Indigo (2018) [FLAC]/13 Simple Things.flac

    Track gain               : -5.06 dB
    Peak                     : 1.000000
    CRC32 hash (test run)    : 66AC7176
    CRC32 hash               : 66AC7176
    CRC32 hash (skip zero)   : 91BC9FC9
    AccurateRip v1 signature : 54FD2FA5
    AccurateRip v2 signature : CD10F355
        ->Accurately ripped (v2, confidence 13/13)
    Statistics
        Read error                           : 0
        Jitter error (maybe fixed)           : 0
        Retry sector count                   : 0
        Damaged sector count                 : 0

No errors occurred

End of status report

-----BEGIN XLD SIGNATURE-----
Os03S0lbi7xyOhBHQ.3rbPzLxawKK7dgB6jSFq148CNDwRDKDe_aV0_RGQ8OQNlk7CkRpN4st9_xL79.qNN4QHw3.eF5ZpxXPcwvLZ8
-----END XLD SIGNATURE-----
Содержание индексной карты (.CUE)
TITLE "Indigo"
PERFORMER "Kandace Springs"
CATALOG 0602567218791
REM GENRE "Jazz"
REM DATE "2018"
REM DISCID 9A0B5A0D
REM REPLAYGAIN_ALBUM_GAIN -7.34 dB
REM REPLAYGAIN_ALBUM_PEAK 1.000000
FILE "01 - Don't Need the Real Thing.flac" WAVE
  TRACK 01 AUDIO
    TITLE "Don't Need the Real Thing"
    ISRC USUM71713181
    REM REPLAYGAIN_TRACK_GAIN -4.01 dB
    REM REPLAYGAIN_TRACK_PEAK 0.996918
    INDEX 01 00:00:00
FILE "02 - Breakdown.flac" WAVE
  TRACK 02 AUDIO
    TITLE "Breakdown"
    ISRC USUM71808010
    REM REPLAYGAIN_TRACK_GAIN -7.24 dB
    REM REPLAYGAIN_TRACK_PEAK 1.000000
    INDEX 01 00:00:00
FILE "03 - Fix Me.flac" WAVE
  TRACK 03 AUDIO
    TITLE "Fix Me"
    ISRC USUM71713182
    REM REPLAYGAIN_TRACK_GAIN -7.92 dB
    REM REPLAYGAIN_TRACK_PEAK 1.000000
    INDEX 01 00:00:00
FILE "04 - Indigo (Pt. 1).flac" WAVE
  TRACK 04 AUDIO
    TITLE "Indigo (Pt. 1)"
    ISRC USUM71713184
    REM REPLAYGAIN_TRACK_GAIN -7.40 dB
    REM REPLAYGAIN_TRACK_PEAK 0.970306
    INDEX 01 00:00:00
FILE "05 - Piece of Me.flac" WAVE
  TRACK 05 AUDIO
    TITLE "Piece of Me"
    ISRC USUM71713188
    REM REPLAYGAIN_TRACK_GAIN -7.12 dB
    REM REPLAYGAIN_TRACK_PEAK 1.000000
    INDEX 01 00:00:00
FILE "06 - 6 8.flac" WAVE
  TRACK 06 AUDIO
    TITLE "6 8"
    ISRC USUM71713190
    REM REPLAYGAIN_TRACK_GAIN -3.63 dB
    REM REPLAYGAIN_TRACK_PEAK 1.000000
    INDEX 01 00:00:00
FILE "07 - Indigo (Pt. 2).flac" WAVE
  TRACK 07 AUDIO
    TITLE "Indigo (Pt. 2)"
    ISRC USUM71808002
    REM REPLAYGAIN_TRACK_GAIN -7.86 dB
    REM REPLAYGAIN_TRACK_PEAK 0.927643
    INDEX 01 00:00:00
FILE "08 - People Make the World Go 'Round.flac" WAVE
  TRACK 08 AUDIO
    TITLE "People Make the World Go 'Round"
    ISRC USUM71713185
    REM REPLAYGAIN_TRACK_GAIN -7.29 dB
    REM REPLAYGAIN_TRACK_PEAK 0.999969
    INDEX 01 00:00:00
FILE "09 - Unsophisticated (feat. Roy Hargrove).flac" WAVE
  TRACK 09 AUDIO
    TITLE "Unsophisticated (feat. Roy Hargrove)"
    ISRC USUM71713187
    REM REPLAYGAIN_TRACK_GAIN -7.04 dB
    REM REPLAYGAIN_TRACK_PEAK 1.000000
    INDEX 01 00:00:00
FILE "10 - Black Orchid.flac" WAVE
  TRACK 10 AUDIO
    TITLE "Black Orchid"
    ISRC USUM71713183
    REM REPLAYGAIN_TRACK_GAIN -7.00 dB
    REM REPLAYGAIN_TRACK_PEAK 1.000000
    INDEX 01 00:00:00
FILE "11 - Love Sucks.flac" WAVE
  TRACK 11 AUDIO
    TITLE "Love Sucks"
    ISRC USUM71808005
    REM REPLAYGAIN_TRACK_GAIN -8.35 dB
    REM REPLAYGAIN_TRACK_PEAK 0.981476
    INDEX 01 00:00:00
FILE "12 - The First Time Ever I Saw Your Face.flac" WAVE
  TRACK 12 AUDIO
    TITLE "The First Time Ever I Saw Your Face"
    ISRC USUM71809392
    REM REPLAYGAIN_TRACK_GAIN -7.96 dB
    REM REPLAYGAIN_TRACK_PEAK 1.000000
    INDEX 01 00:00:00
FILE "13 - Simple Things (feat. Scat Springs).flac" WAVE
  TRACK 13 AUDIO
    TITLE "Simple Things (feat. Scat Springs)"
    ISRC USUM71713192
    REM REPLAYGAIN_TRACK_GAIN -5.06 dB
    REM REPLAYGAIN_TRACK_PEAK 1.000000
    INDEX 01 00:00:00
Лог проверки качества
[CUETools log; Date: 20.01.2019 22:18:36; Version: 2.1.6]
[CTDB TOCID: o2xZzVQtq7H8ST9.jthc0fIczaY-] found.
Track | CTDB Status
  1   | (48/48) Accurately ripped
  2   | (48/48) Accurately ripped
  3   | (48/48) Accurately ripped
  4   | (48/48) Accurately ripped
  5   | (48/48) Accurately ripped
  6   | (48/48) Accurately ripped
  7   | (48/48) Accurately ripped
  8   | (48/48) Accurately ripped
  9   | (48/48) Accurately ripped
 10   | (48/48) Accurately ripped
 11   | (48/48) Accurately ripped
 12   | (48/48) Accurately ripped
 13   | (47/48) Accurately ripped
[AccurateRip ID: 0016340a-00e0040c-9a0b5a0d] found.
Track   [  CRC   |   V2   ] Status
 01     [e9dda639|0b4e38b4] (00+13/13) Accurately ripped
 02     [6e8875a8|8b12e42f] (00+13/13) Accurately ripped
 03     [a60955cf|184415ac] (00+13/13) Accurately ripped
 04     [e0dfc8cc|c4ec3e8c] (00+13/13) Accurately ripped
 05     [58a0e13f|bbcf4524] (00+13/13) Accurately ripped
 06     [a6a137aa|efe4938f] (00+13/13) Accurately ripped
 07     [503b779a|27c43341] (00+13/13) Accurately ripped
 08     [76c7a9d7|ed5b7805] (00+13/13) Accurately ripped
 09     [08d518de|bbb642f2] (00+13/13) Accurately ripped
 10     [87f251c9|9a7c9c67] (00+13/13) Accurately ripped
 11     [9ae7340c|ec6ad756] (00+13/13) Accurately ripped
 12     [7633cb8e|c0610e38] (00+13/13) Accurately ripped
 13     [54fd2fa5|cd10f355] (00+13/13) Accurately ripped

Track Peak [ CRC32  ] [W/O NULL]
 --  100,0 [993F1F3C] [7ABDE02E]
 01   99,6 [A7429B88] [4A8C587F]
 02  100,0 [BC05BB10] [B8803099]
 03  100,0 [4F1B3D6E] [66B2EDE3]
 04   97,0 [4D9F46F9] [B4D35F50]
 05  100,0 [ACA037ED] [5B86C77B]
 06  100,0 [F5201E86] [99842CD4]
 07   92,7 [5817842C] [9B74D930]
 08  100,0 [9FD216AE] [04A84408]
 09  100,0 [01F91E2E] [0A104FB2]
 10  100,0 [0B9CDFE8] [FF1451BE]
 11   98,1 [9164D6ED] [F4C464AC]
 12  100,0 [80384511] [6E7BE49F]
 13  100,0 [66AC7176] [91BC9FC9]
Приватный:
Нет (DHT включён)
Размер:
270.30 Мб (283,433,656 байт) » файлов: 21
Участники:
12 раздают, 0 качают (12 участников всего)
Внешние участники:
--- [ Обновить ]
Нет сидеров - пишите личное сообщение M0p94ok. Не нравятся торренты? Участники группы Pro-jazz Club могут заказать прямую ссылку на скачивание из облака.
No seeders - write a personal message to M0p94ok. Don't like torrents? Members of Pro-jazz Club group can order a direct download link from the cloud.
22:13
59
Нет комментариев. Ваш будет первым!