Поиск

2019 Chuck Deardorf - Perception {Origin} [WEB]

2019 Chuck Deardorf - Perception {Origin} [WEB]
Битрейт аудио:
lossless
Треклист:

1. Lullaby. 6:47
2. Le Mistral. 6:45
3. Home. 8:21
4. Silver Hollow. 8:10
5. Pannonica. 4:03
6. Monk's Dream. 6:12
7. Grain Waves. 1:24
8. Falling Grace. 5:54
9. Can't Find My Way Home. 7:13

 
DRM.log
foobar2000 1.3.8 / Dynamic Range Meter 1.1.1
log date: 2019-01-19 23:35:06
--------------------------------------------------------------------------------
Analyzed: Chuck Deardorf / Perception
--------------------------------------------------------------------------------
DR         Peak         RMS     Duration Track
--------------------------------------------------------------------------------
DR10      -0.14 dB   -12.42 dB      6:48 01-Lullaby
DR10      -0.14 dB   -10.95 dB      6:45 02-Le Mistral
DR10      -0.14 dB   -13.19 dB      8:21 03-Home
DR11      -0.15 dB   -13.14 dB      8:10 04-Silver Hollow
DR12      -0.45 dB   -14.23 dB      4:04 05-Pannonica
DR10      -0.14 dB   -12.25 dB      6:13 06-Monk's Dream
DR10      -1.66 dB   -15.98 dB      1:25 07-Grain Waves
DR11      -0.15 dB   -13.07 dB      5:54 08-Falling Grace
DR10      -0.15 dB   -12.81 dB      7:14 09-Can't Find My Way Home
--------------------------------------------------------------------------------
Number of tracks:  9
Official DR value: DR10
Samplerate:        44100 Hz
Channels:          2
Bits per sample:   16
Bitrate:           748 kbps
Codec:             FLAC
================================================================================
Лог проверки качества
-----------------------

DON'T MODIFY THIS FILE

-----------------------

PERFORMER: auCDtect Task Manager, ver. 1.6.0 RC1 build 1.6.0.1
Copyright (c) 2008-2010 y-soft. All rights reserved
http://y-soft.org

ANALYZER: auCDtect: CD records authenticity detector, version 0.8.2
Copyright (c) 2004 Oleg Berngardt. All rights reserved.
Copyright (c) 2004 Alexander Djourik. All rights reserved.

FILE: 01. Lullaby.flac
  Size: 40107051 Hash: E322DAF334E52D1C28B066BFDD6AF4AB Accuracy: -m0
  Conclusion: CDDA 99%
  Signature: AEFDFCA21746B34482ADF2F83B26588AE00C2274
FILE: 02. Le Mistral.flac
  Size: 44342739 Hash: A9357B1F2FD56D6B1765476371A136E0 Accuracy: -m0
  Conclusion: CDDA 100%
  Signature: 13DC5D125C1A05BBA2924F9EA69FB674C715C3CC
FILE: 03. Home.flac
  Size: 47504647 Hash: 7985948ECB18AD6B54AD60ABC122F9A9 Accuracy: -m0
  Conclusion: CDDA 99%
  Signature: 272FEE8F5CDD00DE97B36593E3142373BCAAEB8F
FILE: 04. Silver Hollow.flac
  Size: 48761385 Hash: E650D84C7E5224043AB5C55999F44015 Accuracy: -m0
  Conclusion: CDDA 100%
  Signature: 7AF9AAE31DFFF74F8CFD9B0DC9FF36DEF93F6185
FILE: 05. Pannonica.flac
  Size: 17384313 Hash: 6084D2855804EA9A434E4329E9F65051 Accuracy: -m0
  Conclusion: CDDA 100%
  Signature: 4D141B7718FC4EE6527D473212DA823ECB3BA283
FILE: 06. Monk's Dream.flac
  Size: 39977201 Hash: 55CDECC20C4E9E9DB35BFA7DB69C2D4C Accuracy: -m0
  Conclusion: CDDA 100%
  Signature: 01B81B988DAEB08328A6876175EE2511FDCDA9E4
FILE: 07. Grain Waves.flac
  Size: 8474439 Hash: B12CA5456810210385C6CF3174B964BF Accuracy: -m0
  Conclusion: CDDA 100%
  Signature: 4ACB6E882BC404E77069CE34C6EBC8C6ABEEC0BC
FILE: 08. Falling Grace.flac
  Size: 37978969 Hash: 08CC65A0EADF25B22C4026FDECDBE1F6 Accuracy: -m0
  Conclusion: CDDA 99%
  Signature: 47583EE86DA36E0756F2A94F7CDBBA1989E69E9B
FILE: 09. Can't Find My Way Home.flac
  Size: 41538769 Hash: 4506CDBFB3CBFE4E333BF0718C6F93C8 Accuracy: -m0
  Conclusion: CDDA 100%
  Signature: 9AA2BCB5B1484D931AB2E4E266430257E98F1E4D
Скачивание доступно после регистрации!!
Приватный:
Нет (DHT включён)
Размер:
304.90 Мб (319,707,051 байт) » файлов: 14
Участники:
0 раздают, 0 качают (0 участников всего)
Внешние участники:
11 раздают, 4 качают (15 участников всего) [ Обновить ]
13:01
21
Нет комментариев. Ваш будет первым!