Поиск

1998 Baldi Olier - Taverna {מאגרי מוסיקה C.D.7010} [CD]

1998 Baldi Olier - Taverna {מאגרי מוסיקה C.D.7010} [CD]
Битрейт аудио:
lossless
Треклист:

01 - Carnaval en cadiz (Baldi Olier)
02 - El rio (Baldi Olier)
03 - Ida y vuelta (Baldi Olier)
04 - The Buleria of Baldi (Baldi Olier)
05 - Cavallo blanco (Baldi Olier)
06 - Balkan bells (Baldi Olier)
07 - Doina Rambetico (Baldi Olier, Haim Romano, Arik Rudich)
08 - Ciocarlia (Baldi Olier)
09 - Sentiments (Baldi Olier)
10 - Rumbero en la fiesta (Baldi Olier)
11 - Waltz Flamenco (Baldi Olier)
12 - Brazilierinho (Azecedo Waldir)
13 - Fiesta gitana (Baldi Olier)
14 - Colombiana Olier (Baldi Olier)
15 - The dove of love (Baldi Olier)
16 - Ole ya salam (Baldi Olier)
17 - Amor de miz amores (A.Cavrol, T.Arik)

 
Замер динамического диапазона
foobar2000 1.3.10 / Замер динамического диапазона (DR) 1.1.1
Дата отчёта:  2019-01-15 07:20:25
--------------------------------------------------------------------------------
Анализ:   Baldi Olier / Taverna
--------------------------------------------------------------------------------
DR         Пики         RMS           Продолжительность трека
--------------------------------------------------------------------------------
DR13      -0.51 дБ   -14.25 дБ      2:48 01-Carnaval en cadiz
DR13      -1.85 дБ   -17.07 дБ      3:51 02-El rio
DR14      -0.66 дБ   -17.92 дБ      3:33 03-Ida y vuelta
DR12      -0.51 дБ   -16.40 дБ      5:09 04-The Buleria of Baldi
DR13      -0.98 дБ   -15.31 дБ      3:05 05-Cavallo blanco
DR12      -1.45 дБ   -16.15 дБ      5:06 06-Balkan bells
DR12      -0.53 дБ   -15.19 дБ      2:59 07-Doina Rambetico
DR13      -0.52 дБ   -15.73 дБ      2:31 08-Ciocarlia
DR12      -0.68 дБ   -18.15 дБ      3:37 09-Sentiments
DR12      -0.52 дБ   -13.67 дБ      3:03 10-Rumbero en la fiesta
DR12      -0.85 дБ   -14.70 дБ      2:24 11-Waltz Flamenco
DR14      -0.52 дБ   -16.20 дБ      2:56 12-Brazilierinho
DR14      -0.51 дБ   -18.20 дБ      4:29 13-Fiesta gitana
DR14      -0.52 дБ   -15.63 дБ      2:58 14-Colombiana Olier
DR10      -0.53 дБ   -12.72 дБ      4:24 15-The dove of love
DR14      -0.48 дБ   -17.96 дБ      3:51 16-Ole ya salam
DR13      -0.52 дБ   -15.42 дБ      2:38 17-Amor de miz amores
--------------------------------------------------------------------------------
Количество треков: 17
Реальные значения DR: DR13
Частота:   44100 Гц
Каналов:   2
Разрядность:   16
Битрейт:   775 кбит/с
Кодек:   FLAC
================================================================================
Лог создания рипа
Exact Audio Copy V1.3 from 2. September 2016

EAC extraction logfile from 6. January 2019, 21:11

Baldi Olier / Taverna

Used drive  : HL-DT-STDVDRAM GH24NSB0   Adapter: 1  ID: 0

Read mode               : Secure
Utilize accurate stream : Yes
Defeat audio cache      : Yes
Make use of C2 pointers : No

Read offset correction                      : 6
Overread into Lead-In and Lead-Out          : No
Fill up missing offset samples with silence : Yes
Delete leading and trailing silent blocks   : No
Null samples used in CRC calculations       : Yes
Used interface                              : Native Win32 interface for Win NT & 2000
Gap handling                                : Appended to previous track

Used output format              : User Defined Encoder
Selected bitrate                : 1024 kBit/s
Quality                         : High
Add ID3 tag                     : No
Command line compressor         : C:\Program Files (x86)\Exact Audio Copy\FLAC\FLAC.EXE
Additional command line options : -V -8 -T "Genre=%genre%" -T "Artist=%artist%" -T "Title=%title%" -T "Album=%albumtitle%" -T "Date=%year%" -T "Tracknumber=%tracknr%" -T "Comment=%comment%" %source%

TOC of the extracted CD

     Track |   Start  |  Length  | Start sector | End sector
    ---------------------------------------------------------
        1  |  0:00.30 |  2:48.37 |        30    |    12666
        2  |  2:48.67 |  3:50.52 |     12667    |    29968
        3  |  6:39.44 |  3:33.13 |     29969    |    45956
        4  | 10:12.57 |  5:09.15 |     45957    |    69146
        5  | 15:21.72 |  3:05.12 |     69147    |    83033
        6  | 18:27.09 |  5:06.34 |     83034    |   106017
        7  | 23:33.43 |  2:59.16 |    106018    |   119458
        8  | 26:32.59 |  2:31.32 |    119459    |   130815
        9  | 29:04.16 |  3:37.03 |    130816    |   147093
       10  | 32:41.19 |  3:03.35 |    147094    |   160853
       11  | 35:44.54 |  2:24.10 |    160854    |   171663
       12  | 38:08.64 |  2:55.50 |    171664    |   184838
       13  | 41:04.39 |  4:28.53 |    184839    |   204991
       14  | 45:33.17 |  2:57.69 |    204992    |   218335
       15  | 48:31.11 |  4:24.30 |    218336    |   238165
       16  | 52:55.41 |  3:50.64 |    238166    |   255479
       17  | 56:46.30 |  2:37.73 |    255480    |   267327

Track  1

     Filename D:\Music\MG rips\Baldi Olier - Taverna - 1998 (Maagarey Musica C.D. 7010) [FLAC]\01 - Carnaval en cadiz.wav

     Pre-gap length  0:00:02.30

     Peak level 94.3 %
     Extraction speed 0.9 X
     Track quality 100.0 %
     Test CRC DD534AD2
     Copy CRC DD534AD2
     Track not present in AccurateRip database
     Copy OK

Track  2

     Filename D:\Music\MG rips\Baldi Olier - Taverna - 1998 (Maagarey Musica C.D. 7010) [FLAC]\02 - El rio.wav

     Peak level 80.7 %
     Extraction speed 1.1 X
     Track quality 100.0 %
     Test CRC C93AED85
     Copy CRC C93AED85
     Track not present in AccurateRip database
     Copy OK

Track  3

     Filename D:\Music\MG rips\Baldi Olier - Taverna - 1998 (Maagarey Musica C.D. 7010) [FLAC]\03 - Ida y vuelta.wav

     Peak level 92.7 %
     Extraction speed 1.2 X
     Track quality 100.0 %
     Test CRC 79C0D1AD
     Copy CRC 79C0D1AD
     Track not present in AccurateRip database
     Copy OK

Track  4

     Filename D:\Music\MG rips\Baldi Olier - Taverna - 1998 (Maagarey Musica C.D. 7010) [FLAC]\04 - The Buleria of Baldi.wav

     Peak level 94.3 %
     Extraction speed 1.4 X
     Track quality 100.0 %
     Test CRC BF5D547C
     Copy CRC BF5D547C
     Track not present in AccurateRip database
     Copy OK

Track  5

     Filename D:\Music\MG rips\Baldi Olier - Taverna - 1998 (Maagarey Musica C.D. 7010) [FLAC]\05 - Cavallo blanco.wav

     Peak level 89.3 %
     Extraction speed 1.3 X
     Track quality 100.0 %
     Test CRC D5F6EDE9
     Copy CRC D5F6EDE9
     Track not present in AccurateRip database
     Copy OK

Track  6

     Filename D:\Music\MG rips\Baldi Olier - Taverna - 1998 (Maagarey Musica C.D. 7010) [FLAC]\06 - Balkan bells.wav

     Peak level 84.6 %
     Extraction speed 1.5 X
     Track quality 100.0 %
     Test CRC E3B4DB19
     Copy CRC E3B4DB19
     Track not present in AccurateRip database
     Copy OK

Track  7

     Filename D:\Music\MG rips\Baldi Olier - Taverna - 1998 (Maagarey Musica C.D. 7010) [FLAC]\07 - Doina Rambetico.wav

     Peak level 94.1 %
     Extraction speed 1.5 X
     Track quality 100.0 %
     Test CRC C1925DD7
     Copy CRC C1925DD7
     Track not present in AccurateRip database
     Copy OK

Track  8

     Filename D:\Music\MG rips\Baldi Olier - Taverna - 1998 (Maagarey Musica C.D. 7010) [FLAC]\08 - Ciocarlia.wav

     Peak level 94.1 %
     Extraction speed 1.5 X
     Track quality 100.0 %
     Test CRC B2D301B6
     Copy CRC B2D301B6
     Track not present in AccurateRip database
     Copy OK

Track  9

     Filename D:\Music\MG rips\Baldi Olier - Taverna - 1998 (Maagarey Musica C.D. 7010) [FLAC]\09 - Sentiments.wav

     Peak level 92.4 %
     Extraction speed 1.6 X
     Track quality 100.0 %
     Test CRC E3B1854C
     Copy CRC E3B1854C
     Track not present in AccurateRip database
     Copy OK

Track 10

     Filename D:\Music\MG rips\Baldi Olier - Taverna - 1998 (Maagarey Musica C.D. 7010) [FLAC]\10 - Rumbero en la fiesta.wav

     Peak level 94.2 %
     Extraction speed 1.7 X
     Track quality 100.0 %
     Test CRC 77CFE93C
     Copy CRC 77CFE93C
     Track not present in AccurateRip database
     Copy OK

Track 11

     Filename D:\Music\MG rips\Baldi Olier - Taverna - 1998 (Maagarey Musica C.D. 7010) [FLAC]\11 - Waltz Flamenco.wav

     Peak level 90.7 %
     Extraction speed 1.7 X
     Track quality 100.0 %
     Test CRC A681B2EC
     Copy CRC A681B2EC
     Track not present in AccurateRip database
     Copy OK

Track 12

     Filename D:\Music\MG rips\Baldi Olier - Taverna - 1998 (Maagarey Musica C.D. 7010) [FLAC]\12 - Brazilierinho.wav

     Peak level 94.1 %
     Extraction speed 1.8 X
     Track quality 100.0 %
     Test CRC B7B266C7
     Copy CRC B7B266C7
     Track not present in AccurateRip database
     Copy OK

Track 13

     Filename D:\Music\MG rips\Baldi Olier - Taverna - 1998 (Maagarey Musica C.D. 7010) [FLAC]\13 - Fiesta gitana.wav

     Peak level 94.3 %
     Extraction speed 1.9 X
     Track quality 100.0 %
     Test CRC 477848D0
     Copy CRC 477848D0
     Track not present in AccurateRip database
     Copy OK

Track 14

     Filename D:\Music\MG rips\Baldi Olier - Taverna - 1998 (Maagarey Musica C.D. 7010) [FLAC]\14 - Colombiana Olier.wav

     Peak level 94.2 %
     Extraction speed 1.6 X
     Track quality 99.9 %
     Test CRC 804A9B67
     Copy CRC 804A9B67
     Track not present in AccurateRip database
     Copy OK

Track 15

     Filename D:\Music\MG rips\Baldi Olier - Taverna - 1998 (Maagarey Musica C.D. 7010) [FLAC]\15 - The dove of love.wav

     Peak level 94.0 %
     Extraction speed 2.1 X
     Track quality 100.0 %
     Test CRC 29A25D8D
     Copy CRC 29A25D8D
     Track not present in AccurateRip database
     Copy OK

Track 16

     Filename D:\Music\MG rips\Baldi Olier - Taverna - 1998 (Maagarey Musica C.D. 7010) [FLAC]\16 - Ole ya salam.wav

     Peak level 94.6 %
     Extraction speed 2.1 X
     Track quality 100.0 %
     Test CRC 6F650CA4
     Copy CRC 6F650CA4
     Track not present in AccurateRip database
     Copy OK

Track 17

     Filename D:\Music\MG rips\Baldi Olier - Taverna - 1998 (Maagarey Musica C.D. 7010) [FLAC]\17 - Amor de miz amores.wav

     Peak level 94.1 %
     Extraction speed 2.0 X
     Track quality 100.0 %
     Test CRC B8CDCADA
     Copy CRC B8CDCADA
     Track not present in AccurateRip database
     Copy OK

None of the tracks are present in the AccurateRip database

No errors occurred

End of status report

==== Log checksum 3727B86FA0A77F85D8A5808D94E7A47850FC9197D00B8AF84F4CD2F57292D916 ====
Содержание индексной карты (.CUE)
REM GENRE Flamenco
REM DATE 1998
REM DISCID E30DEC11
REM COMMENT "ExactAudioCopy v1.3"
CATALOG 0000000000000
PERFORMER "Baldi Olier"
TITLE "Taverna"
REM COMPOSER ""
FILE "01 - Carnaval en cadiz.wav" WAVE
  TRACK 01 AUDIO
    TITLE "Carnaval en cadiz"
    PERFORMER "Baldi Olier"
    REM COMPOSER ""
    PREGAP 00:00:30
    INDEX 01 00:00:00
FILE "02 - El rio.wav" WAVE
  TRACK 02 AUDIO
    TITLE "El rio"
    PERFORMER "Baldi Olier"
    REM COMPOSER ""
    INDEX 01 00:00:00
FILE "03 - Ida y vuelta.wav" WAVE
  TRACK 03 AUDIO
    TITLE "Ida y vuelta"
    PERFORMER "Baldi Olier"
    REM COMPOSER ""
    INDEX 01 00:00:00
FILE "04 - The Buleria of Baldi.wav" WAVE
  TRACK 04 AUDIO
    TITLE "The Buleria of Baldi"
    PERFORMER "Baldi Olier"
    REM COMPOSER ""
    INDEX 01 00:00:00
FILE "05 - Cavallo blanco.wav" WAVE
  TRACK 05 AUDIO
    TITLE "Cavallo blanco"
    PERFORMER "Baldi Olier"
    REM COMPOSER ""
    INDEX 01 00:00:00
FILE "06 - Balkan bells.wav" WAVE
  TRACK 06 AUDIO
    TITLE "Balkan bells"
    PERFORMER "Baldi Olier"
    REM COMPOSER ""
    INDEX 01 00:00:00
FILE "07 - Doina Rambetico.wav" WAVE
  TRACK 07 AUDIO
    TITLE "Doina Rambetico"
    PERFORMER "Baldi Olier"
    REM COMPOSER ""
    INDEX 01 00:00:00
FILE "08 - Ciocarlia.wav" WAVE
  TRACK 08 AUDIO
    TITLE "Ciocarlia"
    PERFORMER "Baldi Olier"
    REM COMPOSER ""
    INDEX 01 00:00:00
FILE "09 - Sentiments.wav" WAVE
  TRACK 09 AUDIO
    TITLE "Sentiments"
    PERFORMER "Baldi Olier"
    REM COMPOSER ""
    INDEX 01 00:00:00
FILE "10 - Rumbero en la fiesta.wav" WAVE
  TRACK 10 AUDIO
    TITLE "Rumbero en la fiesta"
    PERFORMER "Baldi Olier"
    REM COMPOSER ""
    INDEX 01 00:00:00
FILE "11 - Waltz Flamenco.wav" WAVE
  TRACK 11 AUDIO
    TITLE "Waltz Flamenco"
    PERFORMER "Baldi Olier"
    REM COMPOSER ""
    INDEX 01 00:00:00
FILE "12 - Brazilierinho.wav" WAVE
  TRACK 12 AUDIO
    TITLE "Brazilierinho"
    PERFORMER "Baldi Olier"
    REM COMPOSER ""
    INDEX 01 00:00:00
FILE "13 - Fiesta gitana.wav" WAVE
  TRACK 13 AUDIO
    TITLE "Fiesta gitana"
    PERFORMER "Baldi Olier"
    REM COMPOSER ""
    INDEX 01 00:00:00
FILE "14 - Colombiana Olier.wav" WAVE
  TRACK 14 AUDIO
    TITLE "Colombiana Olier"
    PERFORMER "Baldi Olier"
    REM COMPOSER ""
    INDEX 01 00:00:00
FILE "15 - The dove of love.wav" WAVE
  TRACK 15 AUDIO
    TITLE "The dove of love"
    PERFORMER "Baldi Olier"
    REM COMPOSER ""
    INDEX 01 00:00:00
FILE "16 - Ole ya salam.wav" WAVE
  TRACK 16 AUDIO
    TITLE "Ole ya salam"
    PERFORMER "Baldi Olier"
    REM COMPOSER ""
    INDEX 01 00:00:00
FILE "17 - Amor de miz amores.wav" WAVE
  TRACK 17 AUDIO
    TITLE "Amor de miz amores"
    PERFORMER "Baldi Olier"
    REM COMPOSER ""
    INDEX 01 00:00:00
Лог проверки качества
[CUETools log; Date: 1/15/2019 7:24:21 AM; Version: 2.1.5]
Pregap length 00:00:30.
[CTDB TOCID: 66.ynpN22E9mQPk4wo7Rfc1aBfo-] disk not present in database.
[AccurateRip ID: 0025521a-01d675a5-e30dec11] disk not present in database.

Track Peak [ CRC32  ] [W/O NULL] [  LOG   ]
 --   94.6 [0EEC7252] [6B0F75A8]
 01   94.3 [DD534AD2] [2C2A3BB7]   CRC32
 02   80.7 [C93AED85] [DF3D0DD6]   CRC32
 03   92.7 [79C0D1AD] [12E5F787]   CRC32
 04   94.3 [BF5D547C] [D87E729F]   CRC32
 05   89.3 [D5F6EDE9] [68AC3B64]   CRC32
 06   84.6 [E3B4DB19] [7B2346CB]   CRC32
 07   94.0 [C1925DD7] [786D156F]   CRC32
 08   94.1 [B2D301B6] [2DBEAB12]   CRC32
 09   92.4 [E3B1854C] [2B536EEF]   CRC32
 10   94.2 [77CFE93C] [6840C368]   CRC32
 11   90.7 [A681B2EC] [5651DC2E]   CRC32
 12   94.1 [B7B266C7] [CEB78F9B]   CRC32
 13   94.3 [477848D0] [4F9A7DF0]   CRC32
 14   94.2 [804A9B67] [BCF7BE8C]   CRC32
 15   94.0 [29A25D8D] [C669FD4C]   CRC32
 16   94.6 [6F650CA4] [C70E1159]   CRC32
 17   94.1 [B8CDCADA] [99693928]   CRC32
Скриншот спектра частот
1998 Baldi Olier - Taverna {מאגרי מוסיקה C.D.7010} [CD] 01998 Baldi Olier - Taverna {מאגרי מוסיקה C.D.7010} [CD] 11998 Baldi Olier - Taverna {מאגרי מוסיקה C.D.7010} [CD] 21998 Baldi Olier - Taverna {מאגרי מוסיקה C.D.7010} [CD] 3
Скачивание доступно после регистрации!!
Приватный:
Нет (DHT включён)
Размер:
367.66 Мб (385,514,711 байт) » файлов: 28
Участники:
0 раздают, 0 качают (0 участников всего)
Внешние участники:
1 раздают, 0 качают (1 участников всего) [ Обновить ]
01:03
40
Нет комментариев. Ваш будет первым!