Поиск

2018 Scottish National Jazz Orchestra - Sweet Sister Suite {Spartacus} [WEB]

2018 Scottish National Jazz Orchestra - Sweet Sister Suite {Spartacus} [WEB]
Битрейт аудио:
lossless
Треклист:

1. Sweet Sister. 6:25
2. Keeper Of The Light. 6:11
3. Worlds Apart. 9:30
4. Her Love Is Like An Endless Stream. 9:10
5. Constant Star. 7:05
6. Wondering Dream. 8:48
7. Twilight Chant. 7:29
8. Utopian Recital. 1:52

Жанр: Jazz Big Band / Third Stream / Hard Bop / Post-Bop
Носитель: WEB
Год издания: 2018
Издатель (лейбл): Web Release [Spartacus]
Страна исполнителя (группы): UK
Аудиокодек: FLAC (*.flac)
Тип рипа: tracks
Битрейт аудио: lossless
Продолжительность: 56:33 min
Источник (релизер): qobuz.com
Наличие сканов в содержимом раздачи: нет

 
DRM.log
foobar2000 1.3.8 / Dynamic Range Meter 1.1.1
log date: 2019-01-16 10:04:57
--------------------------------------------------------------------------------
Analyzed: Scottish National Jazz Orchestra / Sweet Sister Suite by Kenny Wheeler
--------------------------------------------------------------------------------
DR         Peak         RMS     Duration Track
--------------------------------------------------------------------------------
DR13      -0.22 dB   -15.80 dB      6:26 01-Sweet Sister
DR13      -0.22 dB   -16.59 dB      6:11 02-Keeper of the Light
DR13      -0.13 dB   -16.69 dB      9:30 03-Worlds Apart
DR12      -0.16 dB   -15.16 dB      9:11 04-Her Love Is Like an Endless Stream
DR12      -0.16 dB   -15.13 dB      7:06 05-Constant Star
DR12      -0.15 dB   -15.37 dB      8:49 06-Wondering Dream
DR12      -0.15 dB   -14.16 dB      7:30 07-Twilight Chant
DR10      -0.18 dB   -13.22 dB      1:53 08-Utopian Recital
--------------------------------------------------------------------------------
Number of tracks:  8
Official DR value: DR12
Samplerate:        44100 Hz
Channels:          2
Bits per sample:   16
Bitrate:           692 kbps
Codec:             FLAC
================================================================================
Лог проверки качества
-----------------------

DON'T MODIFY THIS FILE

-----------------------

PERFORMER: auCDtect Task Manager, ver. 1.6.0 RC1 build 1.6.0.1
Copyright (c) 2008-2010 y-soft. All rights reserved
http://y-soft.org

ANALYZER: auCDtect: CD records authenticity detector, version 0.8.2
Copyright (c) 2004 Oleg Berngardt. All rights reserved.
Copyright (c) 2004 Alexander Djourik. All rights reserved.

FILE: 01. Sweet Sister.flac
  Size: 35750239 Hash: 32C9D026F35132AFA26AA3DF7C2EC270 Accuracy: -m0
  Conclusion: CDDA 100%
  Signature: 827504B7BD44EF5DC59490CE66795E6961169AAD
FILE: 02. Keeper of the Light.flac
  Size: 33744907 Hash: 8FC1C1134C36FD4A91BF8CA93F0C62AE Accuracy: -m0
  Conclusion: CDDA 100%
  Signature: C8DC8D8122BBB231F8E74445F5CD9E734863B386
FILE: 03. Worlds Apart.flac
  Size: 50819151 Hash: FA1F601CF0DB72FACE230C6C22869F05 Accuracy: -m0
  Conclusion: CDDA 100%
  Signature: 613B426BF59AB0155709FCE856B59EE227A7477A
FILE: 04. Her Love Is Like an Endless Stream.flac
  Size: 54615754 Hash: AF9BC66F3A3491447812D2445D216EE0 Accuracy: -m0
  Conclusion: CDDA 99%
  Signature: F46ED3EFA232D005A45F9CD545CA655BBC5C2323
FILE: 05. Constant Star.flac
  Size: 42542914 Hash: 62F413C3093844A09661B63964FDF417 Accuracy: -m0
  Conclusion: CDDA 99%
  Signature: CA4636D443CCA0FE1EAF4DEEA5315CDB40C52325
FILE: 06. Wondering Dream.flac
  Size: 50610836 Hash: C8AE45FF17923514C101E0191A706F8E Accuracy: -m0
  Conclusion: CDDA 100%
  Signature: DD34D42F15537A740DA083EEF68C3DF046BB8EBD
FILE: 07. Twilight Chant.flac
  Size: 44508231 Hash: 4573AE459D23B6E571EFF0972235F51F Accuracy: -m0
  Conclusion: CDDA 100%
  Signature: 77DED1D3074261EF836BDD3851D4902E4EEFF992
FILE: 08. Utopian Recital.flac
  Size: 9885688 Hash: 450A7AD75C6582A61E7D83A9583ACDE5 Accuracy: -m0
  Conclusion: CDDA 100%
  Signature: 40DE3DB2E7B590BC20FF7DA1535DC1B1680E5DF4
Скачивание доступно после регистрации!!
Приватный:
Нет (DHT включён)
Размер:
308.23 Мб (323,202,128 байт) » файлов: 13
Участники:
8 раздают, 0 качают (8 участников всего)
Внешние участники:
8 раздают, 2 качают (10 участников всего) [ Обновить ]
00:52
114
Нет комментариев. Ваш будет первым!