Поиск

2016 Bill Evans, Scottish National Jazz Orchestra - Beauty &The Beast {Spartacus} [WEB]

2016 Bill Evans, Scottish National Jazz Orchestra - Beauty &The Beast {Spartacus} [WEB]
Битрейт аудио:
lossless
Треклист:

1. Beauty & The Beast: Part 1. 6:15
2. Beauty & The Beast: Part 2. 9:24
3. Beauty & The Beast: Part 3. 9:34
4. Beauty & The Beast: Part 4. 8:12
5. Beauty & The Beast: Part 5. 3:39
6. Beauty & The Beast: Part 6. 5:28
7. Beauty & The Beast: Part 7. 9:41

Жанр: Jazz Big Band / Third Stream / Post-Bop / Hard Bop
Носитель: WEB
Год издания: 2016
Издатель (лейбл): Web Release [Spartacus]
Страна исполнителя (группы): UK
Аудиокодек: FLAC (*.flac)
Тип рипа: tracks
Битрейт аудио: lossless
Продолжительность: 52:15 min
Источник (релизер): qobuz.com
Наличие сканов в содержимом раздачи: нет

 

release date: 28.10.2016

 
DRM.log
foobar2000 1.3.8 / Dynamic Range Meter 1.1.1
log date: 2019-01-16 09:58:21
--------------------------------------------------------------------------------
Analyzed: Bill Evans, Scottish National Jazz Orchestra / Beauty & the Beast
--------------------------------------------------------------------------------
DR         Peak         RMS     Duration Track
--------------------------------------------------------------------------------
DR13       0.00 dB   -14.48 dB      6:15 01-Part 1
DR14       0.00 dB   -15.84 dB      9:24 02-Part 2
DR14       0.00 dB   -15.65 dB      9:35 03-Part 3
DR13       0.00 dB   -15.31 dB      8:12 04-Part 4
DR14      -0.14 dB   -17.83 dB      3:40 05-Part 5
DR14       0.00 dB   -16.78 dB      5:29 06-Part 6
DR15       0.00 dB   -17.74 dB      9:41 07-Part 7
--------------------------------------------------------------------------------
Number of tracks:  7
Official DR value: DR14
Samplerate:        44100 Hz
Channels:          2
Bits per sample:   16
Bitrate:           747 kbps
Codec:             FLAC
================================================================================
Лог проверки качества
-----------------------

DON'T MODIFY THIS FILE

-----------------------

PERFORMER: auCDtect Task Manager, ver. 1.6.0 RC1 build 1.6.0.1
Copyright (c) 2008-2010 y-soft. All rights reserved
http://y-soft.org

ANALYZER: auCDtect: CD records authenticity detector, version 0.8.2
Copyright (c) 2004 Oleg Berngardt. All rights reserved.
Copyright (c) 2004 Alexander Djourik. All rights reserved.

FILE: 01. Part 1.flac
  Size: 40634921 Hash: 6654DCCFB9ED503E4403D44D6431E42A Accuracy: -m0
  Conclusion: CDDA 100%
  Signature: 44DAD1B46ED8966F91EFD0375B4B2F364482188B
FILE: 02. Part 2.flac
  Size: 57849491 Hash: 887F32E97B1481E859811643ED9A0C20 Accuracy: -m0
  Conclusion: CDDA 100%
  Signature: 321900330A9D2C9AEB1BAFCE765B124A327457DC
FILE: 03. Part 3.flac
  Size: 61796333 Hash: 7D5E8A63852F75C86B9AAACFBE6A425C Accuracy: -m0
  Conclusion: CDDA 100%
  Signature: D8889FCE4C6668E52F50C8D20DB4504B4F5A6A13
FILE: 04. Part 4.flac
  Size: 50622336 Hash: 947A238C5C3757FF134094EB1BE78F5A Accuracy: -m0
  Conclusion: CDDA 100%
  Signature: 2BCD49A570F07FCF3D0854E6C3A5CCBF62E42809
FILE: 05. Part 5.flac
  Size: 19760904 Hash: BC3F05B50CD56F387D5FF2B24FFA544F Accuracy: -m0
  Conclusion: CDDA 99%
  Signature: D42C6BACA18A1DE0E2ACD0F044902C7D78FDCFEE
FILE: 06. Part 6.flac
  Size: 32500669 Hash: D984B13D5071FE39236DA27FE8F0CA35 Accuracy: -m0
  Conclusion: CDDA 100%
  Signature: 34B2B7CCEA29EA3F638F0B9947BD390D5910EADA
FILE: 07. Part 7.flac
  Size: 54477476 Hash: DABF5A09BB6949C40BDA598E626B35E7 Accuracy: -m0
  Conclusion: CDDA 99%
  Signature: DCE2F312C3E1CAD4F81BD7F44559185B5F6E4301
Приватный:
Нет (DHT включён)
Размер:
303.88 Мб (318,641,832 байт) » файлов: 13
Участники:
7 раздают, 0 качают (7 участников всего)
Внешние участники:
3 раздают, 1 качают (4 участников всего) [ Обновить ]
Для участников группы Pro-jazz Club: никого нет на раздаче - пишите ЛС M0p94ok
For Pro-jazz Club group members: no seeders - write PM to M0p94ok
23:25
192
Нет комментариев. Ваш будет первым!