Поиск

1996 Lee Konitz - It's You {SteepleChase} [24-44.1]

1996 Lee Konitz - It's You {SteepleChase} [24-44.1]
Стили:
Дата записи диска:
1 марта 1996
Место записи:
SteepleChase Digital Studio, Copenhagen, Denmark
Издатель (лейбл):
Номер по каталогу:
SCCD 31398
Битрейт аудио:
lossless
Доп. инфо:

Формат записи/Источник записи: [TR24][OF]
Издание: Remastered
Год издания/переиздания диска: 1996
Продолжительность: 00:51:33
Наличие сканов в содержимом раздачи: Нет

Контейнер: FLAC (*.flac)
Тип рипа: tracks
Разрядность: 24/44,1
Количество каналов: 2.0

Лог проверки качества
foobar2000 1.3.7 / Dynamic Range Meter 1.1.1
log date: 2019-12-24 10:23:29

--------------------------------------------------------------------------------
Analyzed: Lee Konitz / It's You
--------------------------------------------------------------------------------

DR         Peak         RMS     Duration Track
--------------------------------------------------------------------------------
DR18      -0.67 dB   -22.74 dB      9:47 01-Thingin'
DR16      -6.06 dB   -24.48 dB      8:15 02-Angel Eyes
DR15      -2.42 dB   -20.81 dB      6:36 03-Boo Doo
DR16      -2.55 dB   -22.73 dB      9:56 04-It's You
DR15      -2.86 dB   -21.99 dB      8:49 05-Mella
DR13      -2.88 dB   -20.93 dB      8:11 06-April in Nimes
--------------------------------------------------------------------------------

Number of tracks:  6
Official DR value: DR15

Samplerate:        44100 Hz
Channels:          2
Bits per sample:   24
Bitrate:           1356 kbps
Codec:             FLAC
================================================================================
No seeders - write personal message to M0p94ok. Any questions - support@pro-jazz.com.
Нет сидеров - пишите в личку M0p94ok. Есть вопросы - support@pro-jazz.com
19:17
48
Нет комментариев. Ваш будет первым!