Поиск

2021 Enzo Carniel & Filippo Vignato as Silent Room - Aria {Menace} [24-44.1]

2021 Enzo Carniel & Filippo Vignato as Silent Room - Aria {Menace} [24-44.1]
Место записи:
Cicaleto Recording Studio, Arezzo, Toscane, Italy
Дата издания диска:
16 апреля 2021
Битрейт аудио:
lossless
Доп. инфо:

Формат записи/Источник записи: [TR24][OF]
Наличие водяных знаков: Нет
Год издания/переиздания диска: 2021
Издатель (лейбл): Menace
Продолжительность: 46:01
Наличие сканов в содержимом раздачи: Только обложка альбома

Контейнер: FLAC (*.flac)
Тип рипа: tracks
Разрядность: 24/44,1
Формат: PCM
Количество каналов: 2.0

Источник (релизер): Qobuz

https://menaceparis.bandcamp.com/album/aria

Лог проверки качества
foobar2000 1.6.4 / Dynamic Range Meter 1.1.1
log date: 2021-04-16 15:56:58

--------------------------------------------------------------------------------
Analyzed: Enzo Carniel / Aria
--------------------------------------------------------------------------------

DR         Peak         RMS     Duration Track
--------------------------------------------------------------------------------
DR7       -1.00 dB   -11.90 dB      5:15 01-Aria
DR7       -1.00 dB   -12.15 dB      6:08 02-Carla
DR9       -1.00 dB   -11.79 dB      6:01 03-Babele
DR10      -1.00 dB   -14.69 dB      5:18 04-Stretched Mirrors
DR9       -1.00 dB   -12.83 dB      4:27 05-Earth Echo
DR9       -1.00 dB   -12.41 dB      7:00 06-Arbre d'Airain
DR8       -1.00 dB   -12.54 dB      6:16 07-In All Nilautpala
DR6       -1.00 dB    -9.06 dB      5:37 08-Ariæ
--------------------------------------------------------------------------------

Number of tracks:  8
Official DR value: DR8

Samplerate:        44100 Hz
Channels:          2
Bits per sample:   24
Bitrate:           1341 kbps
Codec:             FLAC
================================================================================
No seeders - write personal message to M0p94ok. Any questions - support@pro-jazz.com.
Нет сидеров - пишите в личку M0p94ok. Есть вопросы - support@pro-jazz.com
19:00
55
Нет комментариев. Ваш будет первым!